Loading...
Error

Лечебница духовная. Отец Власий (Сергей Ломкин) [2005, торжество Православия, DVDRip]

Ответить на тему
Статистика раздачи
   
 
Автор Сообщение

royalstag

Стаж: 6 лет 2 месяца

Сообщений: 613

Russia

post 15-Ноя-2021 00:52

[Цитировать] 

Лечебница духовная. Отец Власий

pic
Дата/Год выпуска: 2005
Страна: Россия
Жанр: торжество Православия
Продолжительность: 01:37:06 + 00:35:39
Перевод: Не требуется
Русские субтитры: нет
Оригинальная аудиодорожка: русский
Режиссер: Сергей Ломкин

Описание: Этот фильм состоит из двух частей. Первая повествует о Рождества Богородицы Свято-Пафнутьевом Боровском монастыре и о духовнике монастыря, схиархимадрите Власии (Перегонцеве), который по благословлению митрополита Калужского и Боровского, высокопреосвященного Климента, ведет здесь прием паломников. Они приезжают сюда, чтобы получить у старца духовное утешение, решение сложных житейских вопросов, исцеления телесного, и прежде всего, духовного. Второй фильм рассказывает об удивительных дарах целительства отца Власия и о его неутомимой помощи в излечении самых тяжелых заболеваний.

качество: DVDRip
формат: AVI
Видео: xvid, 720x544 (4:3), 25.000 fps, 998 - 999 Kbps (0.102 bit/pixel)
Аудио: MP3, 48.0 KHz, 2 ch, 160 Kbps, CBR
Список выпусков/серий
01. Лечебница духовная
02. Отец Власий
MediaInfo
[pre]
General
Complete name : G:\документалка\Православие\Лечебница духовная. Отец Власий\01. Лечебница духовная.avi
Format : AVI
Format/Info : Audio Video Interleave
File size : 813 MiB
Duration : 1h 37mn
Overall bit rate : 1 171 Kbps
Movie name : 01. Лечебница духовная
Writing application : Lavf55.19.104

Video
ID : 0
Format : xvid
Codec ID : xvid
Duration : 1h 37mn
Bit rate : 998 Kbps
Width : 720 pixels
Height : 544 pixels
Display aspect ratio : 4:3
Frame rate : 25.000 fps
Bits/(Pixel*Frame) : 0.102
Stream size : 693 MiB (85%)

Audio
ID : 1
Format : MPEG Audio
Format version : Version 1
Format profile : Layer 3
Mode : Joint stereo
Codec ID : 55
Codec ID/Hint : MP3
Duration : 1h 37mn
Bit rate mode : Constant
Bit rate : 160 Kbps
Channel(s) : 2 channels
Sampling rate : 48.0 KHz
Compression mode : Lossy
Stream size : 111 MiB (14%)
Alignment : Aligned on interleaves
Interleave, duration : 24 ms (0.60 video frame)
Interleave, preload duration : 72 ms

[/pre]
Скриншоты
pic pic pic pic
pic
Download

Войдите на сайт, чтобы увидеть полную информацию.

Как скачивать  ·   Правила трекера

[Профиль]  [ЛС] 

Игорь I

Стаж: 12 лет

Сообщений: 2074

Russia

post 16-Ноя-2021 03:02 (спустя 1 день 2 часа)

[Цитировать] 

Благодарю
[Профиль]  [ЛС] 

royalstag

Стаж: 6 лет 2 месяца

Сообщений: 613

Russia

post 20-Ноя-2021 01:03 (спустя 3 дня)

[Цитировать] 

помолимся о новопреставленном схиархимандрите Власии (Перегонцеве)
[Профиль]  [ЛС] 
Показать сообщения:    
Ответить на тему

Текущее время: 28-Янв 23:00

Часовой пояс: GMT + 4



Вы не можете начинать темы
Вы не можете отвечать на сообщения
Вы не можете редактировать свои сообщения
Вы не можете удалять свои сообщения
Вы не можете голосовать в опросах
Вы не можете прикреплять файлы к сообщениям
Вы не можете скачивать файлы