Loading...
Error

Гибель империи. Российский урок [2021 г., исторический, DVB]

Ответить на тему
Статистика раздачи
   
 
Автор Сообщение

royalstag

Стаж: 6 лет 2 месяца

Сообщений: 613

Russia

post 25-Авг-2021 17:14

[Цитировать] 

Гибель империи. Российский урок

pic
Дата/Год выпуска: 2021
Страна: Россия
Жанр: исторический
Продолжительность: 18 x ~00:18:00
Перевод: Не требуется
Русские субтитры: нет
Оригинальная аудиодорожка: русский

Описание: "Гибель империи. Российский урок" – авторский цикл документальных фильмов митрополита Псковского и Порховского Тихона (Шевкунова). Цикл рассказывает о революционных событиях Февраля 1917 года, а также о предпосылках к ним. Со времени тех событий прошло уже более ста лет, однако их значимость не ослабевает с годами. Февраль семнадцатого года стал судьбоносным моментом в истории Российского государства, началом сильных потрясений. Февральская революция оставила после себя очень много вопросов. Автор проекта анализирует экономику Российской империи, ее внутреннюю и внешнюю политику, деятельность царя, военных, политических элит, но главное – состояние российского общества того периода. Прошло больше века, но значимость тех событий для российской истории до сих пор вызывает много споров и вопросов.

качество: DVB
формат: TS
Видео: MPEG 2, 1024x576 (16:9), 24.000 fps, 1 714 Kbps (0.121 bit/pixel)
Аудио: MP2, 48.0 KHz, 2 ch, 128 Kbps, CBR
Список выпусков/серий
01
02
03
04
05
06
07
08
09
10
11
12
13
14
15
16
17
18
MediaInfo
[pre]
General
ID : 1 (0x1)
Complete name : C:\Users\User\Downloads\Гибель империи. Российский урок\01.ts
Format : MPEG-TS
File size : 248 MiB
Duration : 17mn 52s
Overall bit rate mode : Variable
Overall bit rate : 1 939 Kbps

Video
ID : 256 (0x100)
Menu ID : 1 (0x1)
Format : MPEG Video
Format version : Version 2
Format profile : Main@High 1440
Format settings, BVOP : No
Format settings, Matrix : Default
Format settings, GOP : Variable
Codec ID : 2
Duration : 17mn 52s
Bit rate mode : Variable
Bit rate : 1 714 Kbps
Width : 1 024 pixels
Height : 576 pixels
Display aspect ratio : 16:9
Frame rate : 24.000 fps
Color space : YUV
Chroma subsampling : 4:2:0
Bit depth : 8 bits
Scan type : Progressive
Compression mode : Lossy
Bits/(Pixel*Frame) : 0.121
Time code of first frame : 00:00:00:00
Time code source : Group of pictures header
Stream size : 219 MiB (88%)

Audio
ID : 257 (0x101)
Menu ID : 1 (0x1)
Format : MPEG Audio
Format version : Version 1
Format profile : Layer 2
Codec ID : 3
Duration : 17mn 52s
Bit rate mode : Constant
Bit rate : 128 Kbps
Channel(s) : 2 channels
Sampling rate : 48.0 KHz
Compression mode : Lossy
Delay relative to video : -10ms
Stream size : 16.4 MiB (7%)

Menu
ID : 4096 (0x1000)
Menu ID : 1 (0x1)
Duration : 17mn 52s
List : 256 (0x100) (MPEG Video) / 257 (0x101) (MPEG Audio)
Service name : gibel-imperii-rossijskij-urok-1_original
Service provider : FFmpeg
Service type : digital television

[/pre]
Скриншоты
pic pic pic pic
pic
Download

Войдите на сайт, чтобы увидеть полную информацию.

Как скачивать  ·   Правила трекера

[Профиль]  [ЛС] 

Midka

Стаж: 11 лет

Сообщений: 20

Russia

post 26-Авг-2021 06:32 (спустя 13 часов)

[Цитировать] 

Огромное СПАСИБО за труд!Спаси БОГ!

_________________
Midka
[Профиль]  [ЛС] 

royalstag

Стаж: 6 лет 2 месяца

Сообщений: 613

Russia

post 26-Авг-2021 11:56 (спустя 5 часов)

[Цитировать] 

Midka
благодарю вас за добрые отзывы и пожелания ! взаимно
[Профиль]  [ЛС] 

arch_Elijah

Стаж: 9 лет 4 месяца

Сообщений: 234

Откуда: KIEV

Ukraine

post 26-Авг-2021 12:26 (спустя 29 минут)

[Цитировать] 

Спасибо, слил себе. Посмотрим.

_________________
орешек знаний твёрд...
[Профиль]  [ЛС] 

royalstag

Стаж: 6 лет 2 месяца

Сообщений: 613

Russia

post 26-Авг-2021 19:38 (спустя 7 часов)

[Цитировать] 

arch_Elijah
на здоровье
[Профиль]  [ЛС] 

Alex Pet

Стаж: 12 лет

Сообщений: 42

Откуда: Новосибирск

Russia

post 26-Авг-2021 19:53 (спустя 15 минут)

[Цитировать] 

Благодарю!
[Профиль]  [ЛС] 

royalstag

Стаж: 6 лет 2 месяца

Сообщений: 613

Russia

post 27-Авг-2021 22:20 (спустя 1 день 2 часа)

[Цитировать] 

Alex Pet
и я вас тоже
[Профиль]  [ЛС] 

Игорь I

Стаж: 12 лет

Сообщений: 2074

Russia

post 28-Авг-2021 18:36 (спустя 20 часов)

[Цитировать] 

Благодарю!
[Профиль]  [ЛС] 

mangealic

Стаж: 7 лет 5 месяцев

Сообщений: 91

post 30-Авг-2021 10:14 (спустя 1 день 15 часов)

[Цитировать] 

Благодарю!
[Профиль]  [ЛС] 

ctalker2005

Стаж: 4 года 1 месяц

Сообщений: 1

post 30-Окт-2021 13:52 (спустя 2 месяца)

[Цитировать] 

Спаси Христос!
[Профиль]  [ЛС] 

royalstag

Стаж: 6 лет 2 месяца

Сообщений: 613

Russia

post 31-Окт-2021 20:24 (спустя 1 день 6 часов)

[Цитировать] 

Игорь I
mangealic
ctalker2005
во славу Божию !
[Профиль]  [ЛС] 
Показать сообщения:    
Ответить на тему

Текущее время: 27-Янв 15:42

Часовой пояс: GMT + 4



Вы не можете начинать темы
Вы не можете отвечать на сообщения
Вы не можете редактировать свои сообщения
Вы не можете удалять свои сообщения
Вы не можете голосовать в опросах
Вы не можете прикреплять файлы к сообщениям
Вы не можете скачивать файлы