Loading...
Error

(Православные песнопения) Песнопения Свято-Покровского монастыря - Сестры Свято-Покровского монастыря - 1999, MP3, 320 kbps

Ответить на тему
Статистика раздачи
   
 
Автор Сообщение

Petrorin

Стаж: 3 года 8 месяцев

Сообщений: 32

post 06-Дек-2020 15:21

[Цитировать] 

Сестры Свято-Покровского монастыря / Песнопения Свято-Покровского монастыря

pic
Жанр: православные песнопения
Страна исполнителя (группы): Россия
Год издания: 1999
Аудиокодек: MP3
Тип рипа: tracks
Битрейт аудио: 320 kbps
Продолжительность: 00:36:22
Наличие сканов: да
Треклист:
01. Заступнице усердная
02. О Матерь Пресвятая
03. Если ты вступил в обитель (из собрания о. Николая Гурьянова, о. Залит)
04. Господи помилуй, Господи прости
05. Молитва "Господи помилуй" (из собрания о. Николая Гурьянова, о. Залит)
06. Да исправится
07. Плотию уснув
08. Кто Бог велий яко Бог наш
09. Ангел вопияше
10. Да воскреснет Бог
11. Христос Воскресе
12. Радуйтеся людие
13. Богородице Дево
14. Тропарь Покрова
15. Свете Тихий
О качестве материала
Конверсия AIMP_3 собственного рипа. Лог создания исходного рипа:
Exact Audio Copy V1.5 from 20. February 2020

Отчёт EAC об извлечении, выполненном 16. октября 2020, 19:20

Сестры Свято-Покровского монастыря / Песнопения Свято-Покровского монастыря

Дисковод: HL-DT-STDVDRAM GH22NS40 Adapter: 1 ID: 0

Режим чтения : Достоверность
Использование точного потока : Да
Отключение кэша аудио : Да
Использование указателей C2 : Нет

Коррекция смещения при чтении : 667
Способность читать области Lead-in и Lead-out : Нет
Заполнение пропущенных сэмплов тишиной : Да
Удаление блоков с тишиной в начале и конце : Нет
При вычислениях CRC использовались нулевые сэмплы : Да
Интерфейс : Встроенный Win32-интерфейс для Win NT/2000

Выходной формат : Пользовательский кодировщик
Выбранный битрейт : 1024 kBit/s
Качество : Высокий
Добавление ID3-тега : Нет
Утилита сжатия : C:\Program Files (x86)\Exact Audio Copy\Flac\flac.exe
Дополнительные параметры : -V -8 -T "Date=%year%" -T "Genre=%genre%" %source%

TOC извлечённого CD

Трек | Старт | Длительность | Начальный сектор | Конечный сектор
---------------------------------------------------------------------
1 | 0:00.00 | 4:02.34 | 0 | 18183
2 | 4:02.34 | 2:45.35 | 18184 | 30593
3 | 6:47.69 | 3:33.57 | 30594 | 46625
4 | 10:21.51 | 1:57.54 | 46626 | 55454
5 | 12:19.30 | 3:22.29 | 55455 | 70633
6 | 15:41.59 | 5:52.16 | 70634 | 97049
7 | 21:34.00 | 1:24.21 | 97050 | 103370
8 | 22:58.21 | 0:33.43 | 103371 | 105888
9 | 23:31.64 | 2:21.51 | 105889 | 116514
10 | 25:53.40 | 4:09.60 | 116515 | 135249
11 | 30:03.25 | 0:34.10 | 135250 | 137809
12 | 30:37.35 | 1:53.20 | 137810 | 146304
13 | 32:30.55 | 1:20.29 | 146305 | 152333
14 | 33:51.09 | 1:08.37 | 152334 | 157470
15 | 34:59.46 | 1:22.39 | 157471 | 163659

Характеристики диапазона извлечения и сообщения об ошибках

Выбранный диапазон

Имя файла G:\ПРАВОСЛАВНОЕ ПЕНИЕ\Песнопения Свято-Покровского монастыря - 1999\Песнопения Свято-Покровского монастыря - 1999.wav

Пиковый уровень 100.0 %
Скорость извлечения 1.8 X
Качество диапазона 100.0 %
CRC теста CB682C37
CRC копии CB682C37
Копирование... OK

Ошибок не произошло

AccurateRip: сводка

Трек 1 точность не определена (достоверность 1) [B43F4C7A], AccurateRip вернул [C39EF6BC] (AR v2)
Трек 2 точность не определена (достоверность 1) [62A5F74E], AccurateRip вернул [DFD11E2B] (AR v2)
Трек 3 точность не определена (достоверность 1) [D5823862], AccurateRip вернул [17230B11] (AR v2)
Трек 4 точность не определена (достоверность 1) [A45E8D43], AccurateRip вернул [41D8C120] (AR v2)
Трек 5 точность не определена (достоверность 1) [F1CC8FCE], AccurateRip вернул [9593645B] (AR v2)
Трек 6 точность не определена (достоверность 1) [3F51C756], AccurateRip вернул [AD954AF3] (AR v2)
Трек 7 точность не определена (достоверность 1) [08C9A775], AccurateRip вернул [C5FCA953] (AR v2)
Трек 8 точность не определена (достоверность 1) [A496BB54], AccurateRip вернул [6C45F787] (AR v2)
Трек 9 точность не определена (достоверность 1) [1EEA5867], AccurateRip вернул [C955EFF3] (AR v2)
Трек 10 точность не определена (достоверность 1) [55F8CFC9], AccurateRip вернул [137FA602] (AR v2)
Трек 11 точность не определена (достоверность 1) [413C8B4A], AccurateRip вернул [33A86F38] (AR v2)
Трек 12 точность не определена (достоверность 1) [B3415D32], AccurateRip вернул [D6D7A205] (AR v2)
Трек 13 точность не определена (достоверность 1) [FED08488], AccurateRip вернул [6E354874] (AR v2)
Трек 14 точность не определена (достоверность 1) [5117E80C], AccurateRip вернул [940FE8AD] (AR v2)
Трек 15 точность не определена (достоверность 1) [99E88D26], AccurateRip вернул [DC8A1DA1] (AR v2)

Ни один трек не прошёл проверки на точность
В вашей базе может быть иной вариант штамповки диска

Конец отчёта

==== Контрольная сумма отчёта 753F91283468D3411E09F207E52CFDE30C11DBA1A322E8CB9B9641745CC9DA45 ====
Скриншоты спектра частот исходного рипа
Spectrum pic
Frequency pic
DR Meter pic
Tracks pic
Об альбоме
Песнопения Свято-Покровского женского монастыря, где покоятся мощи блаженной старицы Матроны.
Download

Войдите на сайт, чтобы увидеть полную информацию.

Как скачивать  ·   Правила трекера


_________________
«…В жизни у меня только одна задача – храм этот оберегать и богатства его приумножать. Каждый кирпичик этого храма, каждая вечная книга, каждая вечная мелодия несут в себе спрессованный опыт человечества, мысли его и мысли о нём…» (~Стругацкие)
[Профиль]  [ЛС] 

Kiliyas

Стаж: 15 лет

Сообщений: 31

Откуда: Русь, Московия

Russia

post 27-Сен-2021 09:27 (спустя 9 месяцев)

[Цитировать] 

Скачать бы)

_________________
pic
[Профиль]  [ЛС] 
Показать сообщения:    
Ответить на тему

Текущее время: 21-Июл 23:22

Часовой пояс: GMT + 4



Вы не можете начинать темы
Вы не можете отвечать на сообщения
Вы не можете редактировать свои сообщения
Вы не можете удалять свои сообщения
Вы не можете голосовать в опросах
Вы не можете прикреплять файлы к сообщениям
Вы не можете скачивать файлы