Loading...
Error

(Церковная музыка и церковные хоры (lossless).) "Любимые песни". Второй сборник. (Хор Московского Сретенского монастыря). - 2009, APE (image + .cue), lossless

Ответить на тему
Статистика раздачи
   
 
Автор Сообщение

СЕРГУЛЕТ

Стаж: 12 лет

Сообщений: 2637

Откуда: LA ROMANA

Dominicanrep

post 21-Фев-2010 21:52

[Цитировать] 

"Любимые песни". Второй сборник. (Хор Московского Сретенского монастыря).

pic
Страна: Россия. Сретенский монастырь.
Жанр: Церковная музыка и церковные хоры (lossless).
Год выпуска: 2009
Формат: APE (image + .cue)
Битрейт аудио: lossless
Продолжительность: 00:56:16
Cодержание+Обложки
picpic
EAC log
Exact Audio Copy V0.99 prebeta 5 from 4. May 2009

Отчёт EAC об извлечении, выполненном 21. февраля 2010, 18:24

Сретенский монастырь / Любимые песни_2

Дисковод: ASUS DRW-2014L1T Adapter: 0 ID: 1

Режим чтения : Скоростной

Коррекция смещения при чтении : 6
Способность читать области Lead-in и Lead-out : Нет
Заполнение пропущенных сэмплов тишиной : Да
Удаление блоков с тишиной в начале и конце : Нет
При вычислениях CRC использовались нулевые сэмплы : Да
Интерфейс : Встроенный Win32-интерфейс для Win NT/2000

Выходной формат : Внутренние WAV-операции
Формат сэмплов : 44.100 Гц; 16 бит; стерео

TOC извлечённого CD

Трек | Старт | Длительность | Начальный сектор | Конечный сектор
---------------------------------------------------------------------
1 | 0:00.00 | 3:26.52 | 0 | 15501
2 | 3:26.52 | 2:50.44 | 15502 | 28295
3 | 6:17.21 | 3:00.35 | 28296 | 41830
4 | 9:17.56 | 3:48.02 | 41831 | 58932
5 | 13:05.58 | 3:37.36 | 58933 | 75243
6 | 16:43.19 | 2:11.18 | 75244 | 85086
7 | 18:54.37 | 6:14.00 | 85087 | 113136
8 | 25:08.37 | 3:00.65 | 113137 | 126701
9 | 28:09.27 | 4:18.33 | 126702 | 146084
10 | 32:27.60 | 4:23.58 | 146085 | 165867
11 | 36:51.43 | 5:18.04 | 165868 | 189721
12 | 42:09.47 | 3:48.25 | 189722 | 206846
13 | 45:57.72 | 4:17.55 | 206847 | 226176
14 | 50:15.52 | 3:18.21 | 226177 | 241047
15 | 53:33.73 | 2:42.22 | 241048 | 253219

Характеристики диапазона извлечения и сообщения об ошибках

Выбранный диапазон

Имя файла C:\Сретенский монастырь - Любимые песни_2.wav

Проблемы синхронизации 0:00:37

Пиковый уровень 93.3 %
CRC копии 31430BD8
Копирование завершено

Ошибок не произошло

Конец отчёта
Download

Войдите на сайт, чтобы увидеть полную информацию.

Как скачивать  ·   Правила трекера

[Профиль]  [ЛС] 

Academic Crack

Администратор

Стаж: 13 лет

Сообщений: 2082

Russia

post 29-Май-2010 04:16 (спустя 3 месяца 7 дней)

[Цитировать] 

У кого возникли проблемы с записью/прослушиванием/компрессией - в раздаче некорректный cue-файл. Исправленный файл в архиве здесь. Соответственно, его и в раздаче заменить тоже нужно.

_________________
pic
pic 100 Мбит/с, pic 100 Мбит/с.
Исправили раздачу? Пишите в личку со ссылкой на раздачу.
[Профиль]  [ЛС] 

jcg11

Стаж: 11 лет

Сообщений: 1

Russia

post 12-Июл-2010 23:16 (спустя 1 месяц 14 дней)

[Цитировать] 

Спаси Господи!
Прекрасная раздача!
[Профиль]  [ЛС] 

MIXER

post 23-Июл-2010 11:24 (спустя 10 дней)

[Цитировать] 

раздачи нет вообще. очень жаль
 

eeZee

post 16-Фев-2011 16:49 (спустя 6 месяцев)

[Цитировать] 

Благодарю! Еще не слушал, но думаю что будет не хуже чем первый диск!
 

Александринка

post 13-Мар-2011 11:43 (спустя 24 дня)

[Цитировать] 

У меня вообще не качает... Confused
 

adammax

Стаж: 12 лет

Сообщений: 3

Откуда: Россия

Russia

post 26-Апр-2011 21:43 (спустя 1 месяц 13 дней)

[Цитировать] 

Большое спасибо!

Academic Crack писал(а):

У кого возникли проблемы с записью/прослушиванием/компрессией - в раздаче некорректный cue-файл. Исправленный файл в архиве здесь. Соответственно, его и в раздаче заменить тоже нужно.
Ссылка, к сожалению, уже не актуальна.
Можно еще раз файлик выложить?

Заранее благодарю.
[Профиль]  [ЛС] 

d'Ed

Стаж: 9 лет

Сообщений: 6

Откуда: россия,дальний восток

Ukraine

post 12-Фев-2012 05:23 (спустя 9 месяцев)

[Цитировать] 

Благодарю Вас!
[Профиль]  [ЛС] 

vanish_k

Стаж: 9 лет

Сообщений: 8

post 09-Мар-2012 22:55 (спустя 26 дней)

[Цитировать] 

Нет ли желающих раздать, пжл...
[Профиль]  [ЛС] 

Странник1

Стаж: 12 лет

Сообщений: 2307

Russia

post 15-Мар-2012 19:26 (спустя 5 дней)

[Цитировать] 

Спаси Господи!
[Профиль]  [ЛС] 

Cyril

Стаж: 11 лет

Сообщений: 8

Russia

post 10-Апр-2012 22:25 (спустя 26 дней)

[Цитировать] 

СЕРГУЛЕТ, выложи, пожалуйста, cue-файл еще раз куда-нибудь.
[Профиль]  [ЛС] 

andrew123

Стаж: 10 лет

Сообщений: 47

post 01-Авг-2012 02:48 (спустя 3 месяца 21 день)

[Цитировать] 

Луи Армстронга классно перепели Very Happy
[Профиль]  [ЛС] 

Вася2

Стаж: 11 лет

Сообщений: 1

post 06-Авг-2013 19:20 (спустя 1 год)

[Цитировать] 

Чтоб исправить CUE нужно удалить строку INDEX 00 03:26:52
[Профиль]  [ЛС] 

Saidzin

Стаж: 9 лет

Сообщений: 23

post 24-Дек-2013 00:06 (спустя 4 месяца 17 дней)

[Цитировать] 

СПАСИ БОГ!
[Профиль]  [ЛС] 

talyan

Стаж: 6 лет 10 месяцев

Сообщений: 1

post 27-Июн-2021 15:08 (спустя 7 лет 6 месяцев)

[Цитировать] 

пустышка-торрент ссылка не активируется
[Профиль]  [ЛС] 
Показать сообщения:    
Ответить на тему

Текущее время: 18-Янв 23:28

Часовой пояс: GMT + 4



Вы не можете начинать темы
Вы не можете отвечать на сообщения
Вы не можете редактировать свои сообщения
Вы не можете удалять свои сообщения
Вы не можете голосовать в опросах
Вы не можете прикреплять файлы к сообщениям
Вы не можете скачивать файлы