Loading...
Error

(Церковная музыка Греции, Афона и Сербии (lossless).) "Rite of consecration". "Чин освящения". (3CD). Поёт хор женского киновиального монастыря Ормилия (Греция). - 2004, APE (image + .cue), lossless

Ответить на тему
Статистика раздачи
   
 
Автор Сообщение

СЕРГУЛЕТ

Стаж: 12 лет

Сообщений: 2637

Откуда: LA ROMANA

Dominicanrep

post 21-Апр-2011 13:09

[Цитировать] 

"Rite of consecration". "Чин освящения". (3CD). Поёт хор женского киновиального монастыря Ормилия (Греция).

pic
Страна: Греция.
Жанр: Церковная музыка Греции, Афона и Сербии (lossless).
Год выпуска: 2004
Формат: APE (image + .cue)
Битрейт аудио: lossless
Продолжительность: 01:09:15+01:02:22+00:54:51
Содержание+ Обложки
picpicpicpicpicpic
EAC log
Exact Audio Copy V1.0 beta 1 from 15. November 2010

Отчёт EAC об извлечении, выполненном 21. апреля 2011, 0:18

Ormylia / Rite of consecration 1

Дисковод: HL-DT-STDVDRAM GE20NU10 Adapter: 5 ID: 1

Режим чтения : Достоверность
Использование точного потока : Да
Отключение кэша аудио : Да
Использование указателей C2 : Нет

Коррекция смещения при чтении : 667
Способность читать области Lead-in и Lead-out : Нет
Заполнение пропущенных сэмплов тишиной : Да
Удаление блоков с тишиной в начале и конце : Нет
При вычислениях CRC использовались нулевые сэмплы : Да
Интерфейс : Встроенный Win32-интерфейс для Win NT/2000

Выходной формат : Внутренние WAV-операции
Формат сэмплов : 44.100 Гц; 16 бит; стерео

TOC извлечённого CD

Трек | Старт | Длительность | Начальный сектор | Конечный сектор
---------------------------------------------------------------------
1 | 0:00.00 | 3:58.59 | 0 | 17908
2 | 3:58.59 | 1:24.28 | 17909 | 24236
3 | 5:23.12 | 2:38.58 | 24237 | 36144
4 | 8:01.70 | 3:46.01 | 36145 | 53095
5 | 11:47.71 | 8:10.71 | 53096 | 89916
6 | 19:58.67 | 1:16.16 | 89917 | 95632
7 | 21:15.08 | 4:58.56 | 95633 | 118038
8 | 26:13.64 | 2:34.38 | 118039 | 129626
9 | 28:48.27 | 4:53.21 | 129627 | 151622
10 | 33:41.48 | 2:50.33 | 151623 | 164405
11 | 36:32.06 | 3:29.73 | 164406 | 180153
12 | 40:02.04 | 5:13.10 | 180154 | 203638
13 | 45:15.14 | 1:52.64 | 203639 | 212102
14 | 47:08.03 | 5:28.39 | 212103 | 236741
15 | 52:36.42 | 0:43.04 | 236742 | 239970
16 | 53:19.46 | 0:41.53 | 239971 | 243098
17 | 54:01.24 | 7:04.52 | 243099 | 274950
18 | 61:06.01 | 3:25.02 | 274951 | 290327
19 | 64:31.03 | 4:44.21 | 290328 | 311648

Характеристики диапазона извлечения и сообщения об ошибках

Выбранный диапазон

Имя файла C:\Users\Ирина\Desktop\Ormylia - Rite of consecration 1.wav

Подозрительная позиция 0:59:57
Подозрительная позиция 1:00:07

Пиковый уровень 100.0 %
Скорость извлечения 0.2 X
Качество диапазона 99.8 %
CRC копии 446801D3
Копирование завершено

Были ошибки

Конец отчёта

cd2/
Exact Audio Copy V1.0 beta 1 from 15. November 2010

Отчёт EAC об извлечении, выполненном 20. апреля 2011, 23:53

Ormylia / Rite of consecration 2

Дисковод: HL-DT-STDVDRAM GE20NU10 Adapter: 5 ID: 1

Режим чтения : Достоверность
Использование точного потока : Да
Отключение кэша аудио : Да
Использование указателей C2 : Нет

Коррекция смещения при чтении : 667
Способность читать области Lead-in и Lead-out : Нет
Заполнение пропущенных сэмплов тишиной : Да
Удаление блоков с тишиной в начале и конце : Нет
При вычислениях CRC использовались нулевые сэмплы : Да
Интерфейс : Встроенный Win32-интерфейс для Win NT/2000

Выходной формат : Внутренние WAV-операции
Формат сэмплов : 44.100 Гц; 16 бит; стерео

TOC извлечённого CD

Трек | Старт | Длительность | Начальный сектор | Конечный сектор
---------------------------------------------------------------------
1 | 0:00.00 | 3:44.20 | 0 | 16819
2 | 3:44.20 | 7:43.58 | 16820 | 51602
3 | 11:28.03 | 3:25.57 | 51603 | 67034
4 | 14:53.60 | 3:29.63 | 67035 | 82772
5 | 18:23.48 | 7:54.62 | 82773 | 118384
6 | 26:18.35 | 2:05.13 | 118385 | 127772
7 | 28:23.48 | 2:49.43 | 127773 | 140490
8 | 31:13.16 | 1:20.00 | 140491 | 146490
9 | 32:33.16 | 3:22.62 | 146491 | 161702
10 | 35:56.03 | 2:50.30 | 161703 | 174482
11 | 38:46.33 | 17:00.04 | 174483 | 250986
12 | 55:46.37 | 4:56.72 | 250987 | 273258
13 | 60:43.34 | 1:38.55 | 273259 | 280663

Характеристики диапазона извлечения и сообщения об ошибках

Выбранный диапазон

Имя файла C:\Users\Ирина\Desktop\Ormylia - Rite of consecration 2.wav

Пиковый уровень 100.0 %
Скорость извлечения 0.0 X
Качество диапазона 99.9 %
CRC копии 9598C1A8
Копирование... OK

Ошибок не произошло

Конец отчёта

cd3/
Exact Audio Copy V1.0 beta 1 from 15. November 2010

Отчёт EAC об извлечении, выполненном 20. апреля 2011, 23:22

Ormylia / Rite of consecration 3

Дисковод: HL-DT-STDVDRAM GE20NU10 Adapter: 5 ID: 1

Режим чтения : Достоверность
Использование точного потока : Да
Отключение кэша аудио : Да
Использование указателей C2 : Нет

Коррекция смещения при чтении : 667
Способность читать области Lead-in и Lead-out : Нет
Заполнение пропущенных сэмплов тишиной : Да
Удаление блоков с тишиной в начале и конце : Нет
При вычислениях CRC использовались нулевые сэмплы : Да
Интерфейс : Встроенный Win32-интерфейс для Win NT/2000

Выходной формат : Внутренние WAV-операции
Формат сэмплов : 44.100 Гц; 16 бит; стерео

TOC извлечённого CD

Трек | Старт | Длительность | Начальный сектор | Конечный сектор
---------------------------------------------------------------------
1 | 0:00.00 | 13:12.52 | 0 | 59451
2 | 13:12.52 | 5:29.49 | 59452 | 84175
3 | 18:42.26 | 4:16.55 | 84176 | 103430
4 | 22:59.06 | 3:09.50 | 103431 | 117655
5 | 26:08.56 | 5:34.47 | 117656 | 142752
6 | 31:43.28 | 3:31.04 | 142753 | 158581
7 | 35:14.32 | 6:23.10 | 158582 | 187316
8 | 41:37.42 | 7:43.14 | 187317 | 222055
9 | 49:20.56 | 5:30.60 | 222056 | 246865

Характеристики диапазона извлечения и сообщения об ошибках

Выбранный диапазон

Имя файла C:\Users\Ирина\Desktop\Ormylia - Rite of consecration 3.wav

Пиковый уровень 100.0 %
Скорость извлечения 0.4 X
Качество диапазона 100.0 %
CRC копии CB9BAAEE
Копирование... OK

Ошибок не произошло

Конец отчёта
Download

Войдите на сайт, чтобы увидеть полную информацию.

Как скачивать  ·   Правила трекера

[Профиль]  [ЛС] 

Антон Меньщиков

Стаж: 9 лет 1 месяц

Сообщений: 27

Russia

post 17-Апр-2021 02:06 (спустя 9 лет)

[Цитировать] 

Cкачать бы
[Профиль]  [ЛС] 
Показать сообщения:    
Ответить на тему

Текущее время: 04-Авг 02:35

Часовой пояс: GMT + 4



Вы не можете начинать темы
Вы не можете отвечать на сообщения
Вы не можете редактировать свои сообщения
Вы не можете удалять свои сообщения
Вы не можете голосовать в опросах
Вы не можете прикреплять файлы к сообщениям
Вы не можете скачивать файлы