Loading...
Error

Киево-Печерская Лавра. Псково-Печерский монастырь (Алла Осипова) [2008, торжество Православия, DVDRip]

Ответить на тему
Статистика раздачи
   
 
Автор Сообщение

royalstag

Стаж: 5 лет 7 месяцев

Сообщений: 568

Russia

post 06-Апр-2021 23:49

[Цитировать] 

Киево-Печерская Лавра. Псково-Печерский монастырь

pic
Дата/Год выпуска: 2008
Страна: Россия
Жанр: торжество Православия
Продолжительность: 2 х ~ 00:26:00
Перевод: Не требуется
Русские субтитры: нет
Оригинальная аудиодорожка: русский
Режиссер: Алла Осипова

Описание:
Киево-Печерская Лавра
Что приводит сюда почти 1000 лет непрекращающиеся потоки людей? Хранимые Господом дивные строения великой Лавры, святые пещеры, создававшиеся веками, мощи святых, мироточивые главы, чудотворные иконы и чудо Божественного присутствия.
Псково-Печерский монастырь
Пять веков духовного подвижничества, 130 лет в условиях войн с польскими, литовскими, шведскими захватчиками - и всего 1 день в руках врага. Более 10000 почивших жизней, покоящихся в древних пещерах, а также величественная архитектура каменных соборов, стен; жизнь братии по незыблемому веками уставу - вот что такое Псково-Печерская Лавра.

качество: DVDRip
формат: AVI
Видео: MPEG4, XviD, 704x528 (4:3), 25.000 fps, 1 615 - 1 622 Kbps (0.174 bit/pixel)
Аудио: AC-3, 48.0 KHz, 2 ch, 192 Kbps, CBR
Список выпусков/серий
1. Киево-Печерская Лавра
2. Псково-Печерский монастырь
MediaInfo
[pre]
General
Complete name : G:\документалка\Православие\Киево-Печерская Лавра. Псково-Печерский монастырь\1. Киево-Печерская Лавра.avi
Format : AVI
Format/Info : Audio Video Interleave
File size : 350 MiB
Duration : 26mn 55s
Overall bit rate : 1 817 Kbps
Writing application : VirtualDubMod 1.5.10.2 (build 2540/release)
Writing library : VirtualDubMod build 2540/release

Video
ID : 0
Format : MPEG-4 Visual
Format profile : Advanced Simple@L5
Format settings, BVOP : 4
Format settings, QPel : No
Format settings, GMC : No warppoints
Format settings, Matrix : Default (H.263)
Codec ID : XVID
Codec ID/Hint : XviD
Duration : 26mn 55s
Bit rate : 1 615 Kbps
Width : 704 pixels
Height : 528 pixels
Display aspect ratio : 4:3
Frame rate : 25.000 fps
Color space : YUV
Chroma subsampling : 4:2:0
Bit depth : 8 bits
Scan type : Progressive
Compression mode : Lossy
Bits/(Pixel*Frame) : 0.174
Stream size : 311 MiB (89%)
Writing library : XviD 1.2.1 (UTC 2008-12-04)

Audio
ID : 1
Format : AC-3
Format/Info : Audio Coding 3
Mode extension : CM (complete main)
Format settings, Endianness : Big
Codec ID : 2000
Duration : 26mn 55s
Bit rate mode : Constant
Bit rate : 192 Kbps
Channel(s) : 2 channels
Channel positions : Front: L R
Sampling rate : 48.0 KHz
Bit depth : 16 bits
Compression mode : Lossy
Stream size : 37.0 MiB (11%)
Alignment : Split accross interleaves
Interleave, duration : 40 ms (1.00 video frame)
Interleave, preload duration : 500 ms

[/pre]
Скриншоты
pic pic pic pic
pic
Download

Войдите на сайт, чтобы увидеть полную информацию.

Как скачивать  ·   Правила трекера

[Профиль]  [ЛС] 

Игорь I

Стаж: 12 лет

Сообщений: 2057

Russia

post 08-Апр-2021 22:29 (спустя 1 день 22 часа)

[Цитировать] 

Благодарю!
[Профиль]  [ЛС] 
Показать сообщения:    
Ответить на тему

Текущее время: 20-Июн 16:58

Часовой пояс: GMT + 4



Вы не можете начинать темы
Вы не можете отвечать на сообщения
Вы не можете редактировать свои сообщения
Вы не можете удалять свои сообщения
Вы не можете голосовать в опросах
Вы не можете прикреплять файлы к сообщениям
Вы не можете скачивать файлы