Loading...
Error

(Церковная музыка и церковные хоры (lossless)) Прийми мя, пустыня - Иеродиакон Герман (Рябцев) - 2006, APE (image + .cue), lossless

Ответить на тему
Статистика раздачи
   
 
Автор Сообщение

СЕРГУЛЕТ

Стаж: 12 лет

Сообщений: 2637

Откуда: LA ROMANA

Dominicanrep

post 20-Окт-2009 22:13

[Цитировать] 

Приими мя, пустыня - Иеродиакон Герман (Рябцев)
pic
Страна: Россия. Продюсерский центр Игоря Матвиенко
Жанр: Церковная музыка и церковные хоры (lossless)
Год выпуска: 2006
Формат: APE (image + .cue)
Битрейт аудио: lossless
Продолжительность: 00:56:31
Трэклист:
01. Се время покаяния (глас 4)
02. Приими мя, пустыня (глас 8
03. Камо иду (глас 5)
04. Рече Господь ко Каину (глас 6)
05. Ни умиления стяжах (глас 8
06. Виждь своя, человече (глас 7)
07. Раю Божественный (глас 2)
08. Заповеди Божия восприимем (глас 7)
09. Плакася Адам (глас 3)
10. Раю всечестный (глас 1)
11. Увы мне (глас 5)
12. Зрю тя, гробе (глас 6*)
13. Века сего (глас 8
14. Дом Пресвятой Богородицы — часть 1 (вокал)**
15. Дом Пресвятой Богородицы — часть 2 (инстяументал)***

Дешифровка знаменной нотации,
аранжровка, звукорежиссура — иеродиакон Герман
* двухголосное переложение — иеродиакон Герман
**музыка и слова — иеродиакон Герман
***музыка — иеродиакон Герман

EAC log
Exact Audio Copy V0.99 prebeta 5 from 4. May 2009

Отчёт EAC об извлечении, выполненном 20. октября 2009, 10:04

Иеродиакон Герман (Рябцев) / Приими мя, пустыня

Дисковод: ASUS BC-1205PT Adapter: 1 ID: 0

Режим чтения : Достоверность
Использование точного потока : Да
Отключение кэша аудио : Да
Использование указателей C2 : Нет

Коррекция смещения при чтении : 667
Способность читать области Lead-in и Lead-out : Нет
Заполнение пропущенных сэмплов тишиной : Да
Удаление блоков с тишиной в начале и конце : Нет
При вычислениях CRC использовались нулевые сэмплы : Да
Интерфейс : Встроенный Win32-интерфейс для Win NT/2000

Выходной формат : Внутренние WAV-операции
Формат сэмплов : 44.100 Гц; 16 бит; стерео

TOC извлечённого CD

Трек | Старт | Длительность | Начальный сектор | Конечный сектор
---------------------------------------------------------------------
1 | 0:00.00 | 1:23.00 | 0 | 6224
2 | 1:23.00 | 6:11.52 | 6225 | 34101
3 | 7:34.52 | 1:56.22 | 34102 | 42823
4 | 9:30.74 | 5:11.00 | 42824 | 66148
5 | 14:41.74 | 2:55.00 | 66149 | 79273
6 | 17:36.74 | 3:08.00 | 79274 | 93373
7 | 20:44.74 | 7:12.00 | 93374 | 125773
8 | 27:56.74 | 2:11.00 | 125774 | 135598
9 | 30:07.74 | 2:28.00 | 135599 | 146698
10 | 32:35.74 | 4:24.74 | 146699 | 166572
11 | 37:00.73 | 4:03.00 | 166573 | 184797
12 | 41:03.73 | 4:53.54 | 184798 | 206826
13 | 45:57.52 | 3:05.00 | 206827 | 220701
14 | 49:02.52 | 3:21.27 | 220702 | 235803
15 | 52:24.04 | 4:05.69 | 235804 | 254247

Характеристики диапазона извлечения и сообщения об ошибках

Выбранный диапазон

Имя файла C:\Иеродиакон Герман (Рябцев) - Приими мя, пустыня.wav

Пиковый уровень 100.0 %
Качество диапазона 100.0 %
CRC копии D24A8E29
Копирование... OK

Ошибок не произошло
Конец отчёта

Дополнительная информация
Стихи покаянны, слезны, умиленны, чтобы душа пришла к покаянию" — этот заголовок в певческих рукописях относится к особым произведениям. Впервые эти тексты появляются в певческих книгах в конце XV века. Они не связывались с церковным Уставом и богослужебной практикой. Это — древнейший пласт русской внебогослужебной духовной поэзии. Задача стихов покаянных состояла в том, чтобы привести певцов и слушателей к душеспасительному чистосердечному раскаянию в совершенных ими или когда-нибудь помышлявшихся грехах. Они соединяли в себе строгую лексику знаменного распева с песенностью, свойственной народной культуре. И не случайно стихи покаянные появляются одновременно с жанром русской протяжной песни — жемчужиной народного песнетворчества.Свобода мелодии, её красота и богодухновенность, высокий настрой поэзии, — сила этих составляющих была столь велика, что покаянные стихи пережили средневековую традицию, воплотившись в конце XVII века, в новые жанры внебогослужебной лирики — псальмы и духовный стих, а в XX веке — в высокохудожественные творения русских композиторов Георгия Свиридова, Валерия Гаврилина, Владимира Мартынова.

А.Н. Кручинина, профессор Санкт-Петербургской консерватории

Download

Войдите на сайт, чтобы увидеть полную информацию.

Как скачивать  ·   Правила трекера

[Профиль]  [ЛС] 

zelenev

post 12-Апр-2010 13:26 (спустя 5 месяцев 22 дня)

[Цитировать] 

Спасибо!!
 

post 05-Апр-2021 12:15 (спустя 10 лет)

Топик был перенесен из форума Архив аудио-раздач в форум Церковная музыка и церковные хоры (lossless)

CEPBEP4
 
Показать сообщения:    
Ответить на тему

Текущее время: 18-Янв 20:28

Часовой пояс: GMT + 4



Вы не можете начинать темы
Вы не можете отвечать на сообщения
Вы не можете редактировать свои сообщения
Вы не можете удалять свои сообщения
Вы не можете голосовать в опросах
Вы не можете прикреплять файлы к сообщениям
Вы не можете скачивать файлы