Loading...
Error

Церковная музыка и церковные хоры (lossless) Зову тебя Россиею - Мужской вокальный ансамбль "Валаам" - 2010, FLAC (tracks), lossless

Ответить на тему
Статистика раздачи
   
 
Автор Сообщение

СЕРГУЛЕТ

Стаж: 12 лет

Сообщений: 2637

Откуда: LA ROMANA

Dominicanrep

post 05-Июл-2011 14:01

[Цитировать] 

Зову тебя Россиею - Мужской вокальный ансамбль "Валаам"
pic
Страна: Россия
Жанр: Песни авторов и исполнителей (lossless)
Год выпуска: 2010
Формат: FLAC (tracks)
Битрейт аудио: lossless
Продолжительность: 00:54:05
Трэклист:
01. Совет превечный / П.Чесноков
02. Во Царствии Твоем / В.Калинников
03. Крест хранитель всея вселенныя / С.Трубачёв
04. От юности моея / Соловецкий распев, обр. С.Трубачёва
05. Мужайся, Церковь Христова / С.Трубачёв
06. Утверди, Боже / А.Косолапов
07. Вечерний звон / Муз. А.Алябьева, ст. И.Козлова. Соло: Д.Попов
08. Степь, да степь кругом / Соло: М.Круглов
09. Отговорила роща золотая / Муз. Г.Пономаренко, сл. С.Есенина. Соло: Д.Попов
10. Вьюн над рекой / Соло: А.Бордак
11. Ходят кони / Сл. и муз. Ю.Кима. Соло: Н.Козлов
12. Гляжу в озёра синие / Муз. Л.Афанасьева, сл. И.Шаферана
13. Нежность / Муз. А.Пахмутовой, сл. С.Гребенникова и Н.Добронравова. Соло: В.Целебровский
14. Лирическая / Сл. и муз. В.Высоцкого. Соло: М.Круглов
15. Письмо к матери / Муз. В.Липатова, сл. С.Есенина. Соло: А.Бордак
16. Беловежская пуща / Муз. А.Пахмутовой, сл. Н.Добронравова. Соло: С.Мостовой
17. Ой, при лужку

EAC log
Exact Audio Copy V0.99 prebeta 5 from 4. May 2009

Отчёт EAC об извлечении, выполненном 18. июня 2010, 23:48

Ансамбль Валаам / Зову тебя Россиею

Дисковод: Optiarc DVD RW AD-7173A Adapter: 3 ID: 0

Режим чтения : Достоверность
Использование точного потока : Да
Отключение кэша аудио : Да
Использование указателей C2 : Нет

Коррекция смещения при чтении : 48
Способность читать области Lead-in и Lead-out : Нет
Заполнение пропущенных сэмплов тишиной : Да
Удаление блоков с тишиной в начале и конце : Нет
При вычислениях CRC использовались нулевые сэмплы : Да
Интерфейс : Встроенный Win32-интерфейс для Win NT/2000
Обработка зазоров : Добавлено к предыдущему треку

Выходной формат : Пользовательский кодировщик
Выбранный битрейт : 128 kBit/s
Качество : Высокий
Добавление ID3-тэга : Нет
Утилита сжатия : I:\Program files\aMULTIMEDIA\aSOUND\Exact Audio Copy\Flac\flac.exe
Дополнительные параметры : -8 -V -T "ARTIST=%a" -T "TITLE=%t" -T "ALBUM=%g" -T "TRACKNUMBER=%n" -T "GENRE=%m" -T "COMMENT=EAC FLAC -8" %s

TOC извлечённого CD

Трек | Старт | Длительность | Начальный сектор | Конечный сектор
---------------------------------------------------------------------
1 | 0:00.00 | 3:22.40 | 0 | 15189
2 | 3:22.40 | 3:00.50 | 15190 | 28739
3 | 6:23.15 | 1:25.31 | 28740 | 35145
4 | 7:48.46 | 2:10.45 | 35146 | 44940
5 | 9:59.16 | 3:08.52 | 44941 | 59092
6 | 13:07.68 | 2:17.31 | 59093 | 69398
7 | 15:25.24 | 2:23.47 | 69399 | 80170
8 | 17:48.71 | 3:15.21 | 80171 | 94816
9 | 21:04.17 | 3:43.01 | 94817 | 111542
10 | 24:47.18 | 2:47.47 | 111543 | 124114
11 | 27:34.65 | 3:37.11 | 124115 | 140400
12 | 31:12.01 | 4:09.71 | 140401 | 159146
13 | 35:21.72 | 2:30.66 | 159147 | 170462
14 | 37:52.63 | 3:55.63 | 170463 | 188150
15 | 41:48.51 | 5:03.45 | 188151 | 210920
16 | 46:52.21 | 5:37.58 | 210921 | 236253
17 | 52:30.04 | 2:35.35 | 236254 | 247913

Трек 1

Имя файла I:\Temp\01. Ансамбль Валаам - Свет превечный.wav

Длина предзазора 0:00:02.00

Пиковый уровень 98.9 %
Качество трека 100.0 %
CRC теста 0B2A75D8
CRC копии 0B2A75D8
Копирование... OK

Трек 2

Имя файла I:\Temp\02. Ансамбль Валаам - Во Царствии Твоем.wav

Длина предзазора 0:00:04.53

Пиковый уровень 90.1 %
Качество трека 99.9 %
CRC теста 40BBD56A
CRC копии 40BBD56A
Копирование... OK

Трек 3

Имя файла I:\Temp\03. Ансамбль Валаам - Крест хранитель всея вселенныя.wav

Длина предзазора 0:00:03.67

Пиковый уровень 98.8 %
Качество трека 100.0 %
CRC теста 580BF364
CRC копии 580BF364
Копирование... OK

Трек 4

Имя файла I:\Temp\04. Ансамбль Валаам - От юности моея.wav

Длина предзазора 0:00:04.60

Пиковый уровень 63.0 %
Качество трека 100.0 %
CRC теста F6340D4C
CRC копии F6340D4C
Копирование... OK

Трек 5

Имя файла I:\Temp\05. Ансамбль Валаам - Мужайся, Церковь Христова.wav

Длина предзазора 0:00:05.05

Пиковый уровень 99.0 %
Качество трека 100.0 %
CRC теста E3596489
CRC копии E3596489
Копирование... OK

Трек 6

Имя файла I:\Temp\06. Ансамбль Валаам - Утверди, Боже.wav

Длина предзазора 0:00:04.74

Пиковый уровень 98.9 %
Качество трека 100.0 %
CRC теста 15F4DFCD
CRC копии 15F4DFCD
Копирование... OK

Трек 7

Имя файла I:\Temp\07. Ансамбль Валаам - Вечерний звон.wav

Длина предзазора 0:00:05.73

Пиковый уровень 92.9 %
Качество трека 100.0 %
CRC теста F7B77CDB
CRC копии F7B77CDB
Копирование... OK

Трек 8

Имя файла I:\Temp\08. Ансамбль Валаам - Степь, да степь кругом.wav

Длина предзазора 0:00:02.67

Пиковый уровень 96.6 %
Качество трека 100.0 %
CRC теста D8D93FCD
CRC копии D8D93FCD
Копирование... OK

Трек 9

Имя файла I:\Temp\09. Ансамбль Валаам - Отговорила роща золотая.wav

Длина предзазора 0:00:02.67

Пиковый уровень 96.6 %
Качество трека 100.0 %
CRC теста 7F75A430
CRC копии 7F75A430
Копирование... OK

Трек 10

Имя файла I:\Temp\10. Ансамбль Валаам - Вьюн над рекой.wav

Длина предзазора 0:00:02.67

Пиковый уровень 97.1 %
Качество трека 100.0 %
CRC теста C5A61A42
CRC копии C5A61A42
Копирование... OK

Трек 11

Имя файла I:\Temp\11. Ансамбль Валаам - Ходят кони.wav

Длина предзазора 0:00:02.67

Пиковый уровень 96.6 %
Качество трека 99.9 %
CRC теста 4307557C
CRC копии 4307557C
Копирование... OK

Трек 12

Имя файла I:\Temp\12. Ансамбль Валаам - Гляжу в озера синие.wav

Длина предзазора 0:00:02.67

Пиковый уровень 96.6 %
Качество трека 100.0 %
CRC теста D1221C7C
CRC копии D1221C7C
Копирование... OK

Трек 13

Имя файла I:\Temp\13. Ансамбль Валаам - Нежность.wav

Длина предзазора 0:00:02.67

Пиковый уровень 96.6 %
Качество трека 100.0 %
CRC теста 04CB4B27
CRC копии 04CB4B27
Копирование... OK

Трек 14

Имя файла I:\Temp\14. Ансамбль Валаам - Лирическая.wav

Длина предзазора 0:00:02.67

Пиковый уровень 93.3 %
Качество трека 100.0 %
CRC теста 220565E7
CRC копии 220565E7
Копирование... OK

Трек 15

Имя файла I:\Temp\15. Ансамбль Валаам - Письмо к матери.wav

Длина предзазора 0:00:04.40

Пиковый уровень 96.6 %
Качество трека 100.0 %
CRC теста B307D2E2
CRC копии B307D2E2
Копирование... OK

Трек 16

Имя файла I:\Temp\16. Ансамбль Валаам - Беловежская пуща.wav

Длина предзазора 0:00:02.67

Пиковый уровень 96.6 %
Качество трека 100.0 %
CRC теста 4145909D
CRC копии 4145909D
Копирование... OK

Трек 17

Имя файла I:\Temp\17. Ансамбль Валаам - Ой, при лужку.wav

Длина предзазора 0:00:03.60

Пиковый уровень 96.6 %
Качество трека 100.0 %
CRC теста 6BDF7C62
CRC копии 6BDF7C62
Копирование... OK

Ошибок не произошло

Конец отчёта

Дополнительная информация
В этот альбом вошли духовные сочинения русских композиторов XIX-XX столетий — Павла Чеснокова, священника Алексея Косолапова, Виктора Калинникова, диакона Сергея Трубачёва, а также русские народные песни и авторская вокальная лирика прошедшего полувека.

Download

Войдите на сайт, чтобы увидеть полную информацию.

Как скачивать  ·   Правила трекера

[Профиль]  [ЛС] 

Kolbar

Стаж: 10 лет

Сообщений: 7

Откуда: Санкт-Петербург

Russia

post 29-Дек-2011 20:15 (спустя 5 месяцев 24 дня)

[Цитировать] 

у вас "редкое" издание , под словом редкое я подразумевал старое (опытное издание).оно вышло малым тиражем, а спустя пол года мы дополнили этот диск народными песнями и теперь он только из народных песен состоит, не как здесь :вначале несколько церковных , а потом уже народные пошли. будте в курсе новостей, следите по внимательнее)))) у нас уже новый диск вышел...))) удачи при rip-делании ))))

_________________
Да Воскреснет Бог и расточаться врази Его!
[Профиль]  [ЛС] 

kassandra_777

Стаж: 9 лет 2 месяца

Сообщений: 8

Ukraine

post 19-Ноя-2012 23:49 (спустя 10 месяцев)

[Цитировать] 

Встаньте кто-нибудь на раздачу!
[Профиль]  [ЛС] 

Игорь I

Стаж: 12 лет

Сообщений: 2074

Russia

post 28-Мар-2021 19:39 (спустя 8 лет 4 месяца)

[Цитировать] 

Благодарю
[Профиль]  [ЛС] 
Показать сообщения:    
Ответить на тему

Текущее время: 26-Янв 09:37

Часовой пояс: GMT + 4



Вы не можете начинать темы
Вы не можете отвечать на сообщения
Вы не можете редактировать свои сообщения
Вы не можете удалять свои сообщения
Вы не можете голосовать в опросах
Вы не можете прикреплять файлы к сообщениям
Вы не можете скачивать файлы