Loading...
Error

Церковная музыка Греции, Афона и Сербии (lossless) "Гимны Рождества Христова" Поет хор монахинь монастыря Пресвятой Богородицы Елеусы, Македония - 2007, FLAC (image + .cue), lossless

Ответить на тему
Статистика раздачи
   
 
Автор Сообщение

CEPBEP4

Стаж: 10 лет

Сообщений: 186

Откуда: ОРЕНБУРГ

Russia

post 26-Фев-2021 11:18

[Цитировать] 

"Гимны Рождества Христова" Поет хор монахинь монастыря Пресвятой Богородицы Елеусы, Македония
pic
Страна: Республика Македония
Жанр: Церковная музыка Греции, Афона и Сербии (lossless)
Год выпуска: 2007
Формат: FLAC (image + .cue)
Битрейт аудио: lossless
Продолжительность: 00:07:53
Трэклист:
01. Prvata katavasija na Rozdestvo Hristovo
02. Tropar na Rozdestvo Hristovo
03. Kondak na Rozdestvo Hristovo
04. Vecniot Bog

EAC log
Exact Audio Copy V1.0 beta 6 from 9. April 2015

EAC extraction logfile from 31. August 2015, 9:51

Sestrinstvoto od manastirot Vovedenie na Presveta Bogorodica Eleusa / Himni za Rozdestvo Hristovo

Used drive : TSSTcorpCDDVDW SH-224DB Adapter: 1 ID: 0

Read mode : Secure
Utilize accurate stream : Yes
Defeat audio cache : Yes
Make use of C2 pointers : No

Read offset correction : 6
Overread into Lead-In and Lead-Out : No
Fill up missing offset samples with silence : Yes
Delete leading and trailing silent blocks : No
Null samples used in CRC calculations : Yes
Used interface : Native Win32 interface for Win NT & 2000

Used output format : User Defined Encoder
Selected bitrate : 1024 kBit/s
Quality : High
Add ID3 tag : No
Command line compressor : C:\Program Files (x86)\Exact Audio Copy\FLAC\FLAC.EXE
Additional command line options : -6 -V -T "ARTIST=%artist%" -T "TITLE=%title%" -T "ALBUM=%albumtitle%" -T "DATE=%year%" -T "TRACKNUMBER=%tracknr%" -T "GENRE=%genre%" -T "COMMENT=%comment%" -T "BAND=%albuminterpret%" -T "ALBUMARTIST=%albuminterpret%" -T "COMPOSER=%composer%" %haslyrics%--tag-from-file=LYRICS="%lyricsfile%"%haslyrics% -T "DISCNUMBER=%cdnumber%" -T "TOTALDISCS=%totalcds%" -T "TOTALTRACKS=%numtracks%" %hascover%--picture="%coverfile%"%hascover% %source% -o %dest%

TOC of the extracted CD

Track | Start | Length | Start sector | End sector
---------------------------------------------------------
1 | 0:00.00 | 0:40.14 | 0 | 3013
2 | 0:40.14 | 0:58.11 | 3014 | 7374
3 | 1:38.25 | 1:12.28 | 7375 | 12802
4 | 2:50.53 | 5:02.07 | 12803 | 35459

Range status and errors

Selected range

Filename F:\MUSIC-RIP\001-100\090-100\093. Noel Hymns - Nuns of St. Mary Monastery Eleusa.MediaFire.NE.VO PRIPREMA\upload\Sestrinstvoto od manastirot Vovedenie na Presveta Bogorodica Eleusa - Himni za Rozdestvo Hristovo.wav

Peak level 97.7 %
Extraction speed 2.5 X
Range quality 100.0 %
Copy CRC 0E974093
Copy OK

No errors occurred

AccurateRip summary
Track 1 cannot be verified as accurate (confidence 1) [14FF8CDB], AccurateRip returned [7DB6A6FB] (AR v2)
Track 2 cannot be verified as accurate (confidence 1) [064DAF78], AccurateRip returned [24EEC03C] (AR v2)
Track 3 cannot be verified as accurate (confidence 1) [9BC06960], AccurateRip returned [9A94C69C] (AR v2)
Track 4 cannot be verified as accurate (confidence 1) [C07C03A5], AccurateRip returned [1633F2DE] (AR v2)
No tracks could be verified as accurate
You may have a different pressing from the one(s) in the database

End of status report

---- CUETools DB Plugin V2.1.6

[CTDB TOCID: dYSKQ3GVa72CzWcp4TnhLDRvLJ4-] disk not present in database
Submit result: dYSKQ3GVa72CzWcp4TnhLDRvLJ4- has been uploaded

==== Log checksum 60B7703D40EAEBDE13927BE4D102A8D70AA3FD5D8863B505A939B5BB0893E12A ====

Обложки и содержание
pic pic pic

Download

Войдите на сайт, чтобы увидеть полную информацию.

Как скачивать  ·   Правила трекера

[Профиль]  [ЛС] 
Показать сообщения:    
Ответить на тему

Текущее время: 26-Июл 00:02

Часовой пояс: GMT + 4



Вы не можете начинать темы
Вы не можете отвечать на сообщения
Вы не можете редактировать свои сообщения
Вы не можете удалять свои сообщения
Вы не можете голосовать в опросах
Вы не можете прикреплять файлы к сообщениям
Вы не можете скачивать файлы