Loading...
Error

(Православные песнопения) Всего-то навсего - Праздничный хор и Хор сестер Свято-Елисаветинского монастыря. Регент мон. Иулиания (Денисова) - 2012, FLAC (image + .cue), lossless

Ответить на тему
Статистика раздачи
   
 
Автор Сообщение

Petrorin

Стаж: 3 месяца 16 дней

Сообщений: 30

post 06-Дек-2020 21:27

[Цитировать] 

Праздничный хор и Хор сестер Свято-Елисаветинского монастыря. Регент мон. Иулиания (Денисова) / Всего-то навсего

pic
Жанр: православные песнопения
Носитель: CD
Страна: Белоруссия
Год издания: 2012
Формат: FLAC (image + .cue)
Битрейт аудио: lossless
Продолжительность: 00:55:10
Источник: собственный рип
Наличие сканов: pdf
Треклист:
01. Всего-то навсего. — Стихи протоиерея Андрея Логвинова (You Simply Have to Love. — Lyrics by Archpriest Andrew Logvinov)
02. Странник. — Неизвестного автора (The Wanderer. — Author unknown)
03. Боже, помилуй меня. — Неизвестного автора (God, Have Mercy on Me. — Author unknown)
04. О, дивный остров Валаам! — Стихи монаха Петра [Михайлова] (O Wondrous Isle of Valaam! — Lyrics by Monk Peter [Mikhailov])
05. Храни Господь. — Стихи и музыка сестер Свято-Елисаветинского монастыря (God Save You. — Lyrics and music by sisters of St. Elisabeth Convent)
06. Вера, Надежда, Любовь. — Музыка протоиерея Игоря Лепешинского (Faith, Hope, Love. — Music by Archpriest Igor Lepeshinsky)
07. Радуйся, Невесто Неневестная. — Стихи и музыка иеромонаха Романа [Матюшина] (Hail, O Bride Unwedded. — Lyrics and music by Hieromonk Roman [Matyushin])
08. Был у Христа-Младенца сад. — Музыка П.И. Чайковского, стихи А. Плещеева (When Jesus Christ Was Yet A Child. — Music by P. Tschaikowsky, lyrics by A. Pleshcheyev)
09. Марие, Дево Чистая. — Стихи и музыка св. Нектария Аэгинского (Agni Parthene. — Lyrics and music by St. Nectarios of Aegina)
10. Слеза. — Стихи и музыка А. Денисовой (A Tear. — Lyrics and music by An. Denisova)
11. Три ангела. — Белорусский духовный стих (Three Angels. — Belarusian traditional canticle)
12. Вьюн над водой. — Народная песня (Creeping over the Water. — Folk Song)
13. Мытарь. — Стихи протоиерея Андрея Логвинова (The Publican. — Lyrics by Archpriest Andrew Logvinov)
14. Нить судьбы. — Стихи А. Солодовникова и монахини Иулиании (The Thread of Destiny. — Lyrics by A. Solodovnikov and Nun Juliania)
15. Нищая братия. — Духовный стих (The Poor Brethren. — Traditional canticle)
Лог создания рипа
Exact Audio Copy V1.5 from 20. February 2020

Отчёт EAC об извлечении, выполненном 28. ноября 2020, 20:00

Праздничный хор и хор сестер Свято-Елисаветинского монастыря, регент мон. Иулиания (Денисова) / Всего-то навсего (Песни паломника)

Дисковод: HL-DT-STDVDRAM GH22NS40 Adapter: 1 ID: 0

Режим чтения : Достоверность
Использование точного потока : Да
Отключение кэша аудио : Да
Использование указателей C2 : Нет

Коррекция смещения при чтении : 667
Способность читать области Lead-in и Lead-out : Нет
Заполнение пропущенных сэмплов тишиной : Да
Удаление блоков с тишиной в начале и конце : Нет
При вычислениях CRC использовались нулевые сэмплы : Да
Интерфейс : Встроенный Win32-интерфейс для Win NT/2000

Выходной формат : Пользовательский кодировщик
Выбранный битрейт : 1024 kBit/s
Качество : Высокий
Добавление ID3-тега : Нет
Утилита сжатия : C:\Program Files (x86)\Exact Audio Copy\Flac\flac.exe
Дополнительные параметры : -V -8 -T "Date=%year%" -T "Genre=%genre%" %source%

TOC извлечённого CD

Трек | Старт | Длительность | Начальный сектор | Конечный сектор
---------------------------------------------------------------------
1 | 0:00.00 | 4:45.25 | 0 | 21399
2 | 4:45.25 | 1:52.32 | 21400 | 29831
3 | 6:37.57 | 3:02.55 | 29832 | 43536
4 | 9:40.37 | 3:54.38 | 43537 | 61124
5 | 13:35.00 | 3:02.47 | 61125 | 74821
6 | 16:37.47 | 3:33.65 | 74822 | 90861
7 | 20:11.37 | 4:16.50 | 90862 | 110111
8 | 24:28.12 | 2:59.30 | 110112 | 123566
9 | 27:27.42 | 6:08.05 | 123567 | 151171
10 | 33:35.47 | 3:05.57 | 151172 | 165103
11 | 36:41.29 | 3:45.20 | 165104 | 181998
12 | 40:26.49 | 4:37.06 | 181999 | 202779
13 | 45:03.55 | 3:54.36 | 202780 | 220365
14 | 48:58.16 | 2:38.49 | 220366 | 232264
15 | 51:36.65 | 3:34.03 | 232265 | 248317
16 | 57:42.68 | 0:24.15 | 259718 | 261532

Характеристики диапазона извлечения и сообщения об ошибках

Выбранный диапазон

Имя файла I:\5. EAC\Всего-то навсего - Хоры Свято-Елисаветинского монастыря - 2012.wav

Пиковый уровень 95.8 %
Скорость извлечения 1.9 X
Качество диапазона 100.0 %
CRC теста DEAE2C60
CRC копии DEAE2C60
Копирование... OK

Ошибок не произошло

AccurateRip: сводка

Трек 1 отсутствует в базе данных
Трек 2 отсутствует в базе данных
Трек 3 отсутствует в базе данных
Трек 4 отсутствует в базе данных
Трек 5 отсутствует в базе данных
Трек 6 отсутствует в базе данных
Трек 7 отсутствует в базе данных
Трек 8 отсутствует в базе данных
Трек 9 отсутствует в базе данных
Трек 10 отсутствует в базе данных
Трек 11 отсутствует в базе данных
Трек 12 отсутствует в базе данных
Трек 13 отсутствует в базе данных
Трек 14 отсутствует в базе данных
Трек 15 отсутствует в базе данных

Ни одного трека нет в базе AccurateRip

Конец отчёта

==== Контрольная сумма отчёта 8FBCBEA2A94EC383DCFF57EF8AFF298351033D6C4882C51336CCE31D4DB82AF6 ====
Содержание индексной карты (.CUE)
REM GENRE "Православные песнопения"
REM DATE 2012
REM DISCID EC0D9F10
REM COMMENT "ExactAudioCopy v1.5"
PERFORMER "Праздничный хор и Хор сестер Свято-Елисаветинского монастыря, регент мон. Иулиания (Денисова)"
TITLE "Всего-то навсего (Песни паломника)"
REM COMPOSER ""
FILE "Всего-то навсего - Хоры Свято-Елисаветинского монастыря - 2012.flac" WAVE
TRACK 01 AUDIO
TITLE "Всего-то навсего. — Стихи протоиерея Андрея Логвинова (You Simply Have to Love. — Lyrics by Archpriest Andrew Logvinov)"
PERFORMER "Праздничный хор и хор сестер Свято-Елисаветинского монастыря, регент мон. Иулиания (Денисова)"
REM COMPOSER ""
INDEX 01 00:00:00
TRACK 02 AUDIO
TITLE "Странник. — Неизвестного автора (The Wanderer. — Author unknown)"
PERFORMER "Праздничный хор и хор сестер Свято-Елисаветинского монастыря, регент мон. Иулиания (Денисова)"
REM COMPOSER ""
INDEX 01 04:45:25
TRACK 03 AUDIO
TITLE "Боже, помилуй меня. — Неизвестного автора (God, Have Mercy on Me. — Author unknown)"
PERFORMER "Праздничный хор и хор сестер Свято-Елисаветинского монастыря, регент мон. Иулиания (Денисова)"
REM COMPOSER ""
INDEX 01 06:37:57
TRACK 04 AUDIO
TITLE "О, дивный остров Валаам! — Стихи монаха Петра [Михайлова] (O Wondrous Isle of Valaam! — Lyrics by Monk Peter [Mikhailov])"
PERFORMER "Праздничный хор и хор сестер Свято-Елисаветинского монастыря, регент мон. Иулиания (Денисова)"
REM COMPOSER ""
INDEX 01 09:40:37
TRACK 05 AUDIO
TITLE "Храни Господь. — Стихи и музыка сестер Свято-Елисаветинского монастыря (God Save You. — Lyrics and music by sisters of St. Elisabeth Convent)"
PERFORMER "Праздничный хор и хор сестер Свято-Елисаветинского монастыря, регент мон. Иулиания (Денисова)"
REM COMPOSER ""
INDEX 01 13:35:00
TRACK 06 AUDIO
TITLE "Вера, Надежда, Любовь. — Музыка протоиерея Игоря Лепешинского (Faith, Hope, Love. — Music by Archpriest Igor Lepeshinsky)"
PERFORMER "Праздничный хор и хор сестер Свято-Елисаветинского монастыря, регент мон. Иулиания (Денисова)"
REM COMPOSER ""
INDEX 01 16:37:47
TRACK 07 AUDIO
TITLE "Радуйся, Невесто Неневестная. — Стихи и музыка иеромонаха Романа [Матюшина] (Hail, O Bride Unwedded. — Lyrics and music by Hieromonk Roman [Matyushin])"
PERFORMER "Праздничный хор и хор сестер Свято-Елисаветинского монастыря, регент мон. Иулиания (Денисова)"
REM COMPOSER ""
INDEX 01 20:11:37
TRACK 08 AUDIO
TITLE "Был у Христа-Младенца сад. — Музыка П.И. Чайковского, стихи А. Плещеева (When Jesus Christ Was Yet A Child. — Music by P. Tschaikowsky, lyrics by A. Pleshcheyev)"
PERFORMER "Праздничный хор и хор сестер Свято-Елисаветинского монастыря, регент мон. Иулиания (Денисова)"
REM COMPOSER ""
INDEX 01 24:28:12
TRACK 09 AUDIO
TITLE "Марие, Дево Чистая. — Стихи и музыка св. Нектария Аэгинского (Agni Parthene. — Lyrics and music by St. Nectarios of Aegina)"
PERFORMER "Праздничный хор и хор сестер Свято-Елисаветинского монастыря, регент мон. Иулиания (Денисова)"
REM COMPOSER ""
INDEX 01 27:27:42
TRACK 10 AUDIO
TITLE "Слеза. — Стихи и музыка А. Денисовой (A Tear. — Lyrics and music by An. Denisova)"
PERFORMER "Праздничный хор и хор сестер Свято-Елисаветинского монастыря, регент мон. Иулиания (Денисова)"
REM COMPOSER ""
INDEX 01 33:35:47
TRACK 11 AUDIO
TITLE "Три ангела. — Белорусский духовный стих (Three Angels. — Belarusian traditional canticle)"
PERFORMER "Праздничный хор и хор сестер Свято-Елисаветинского монастыря, регент мон. Иулиания (Денисова)"
REM COMPOSER ""
INDEX 01 36:41:29
TRACK 12 AUDIO
TITLE "Вьюн над водой. — Народная песня (Creeping over the Water. — Folk Song)"
PERFORMER "Праздничный хор и хор сестер Свято-Елисаветинского монастыря, регент мон. Иулиания (Денисова)"
REM COMPOSER ""
INDEX 01 40:26:49
TRACK 13 AUDIO
TITLE "Мытарь. — Стихи протоиерея Андрея Логвинова (The Publican. — Lyrics by Archpriest Andrew Logvinov)"
PERFORMER "Праздничный хор и хор сестер Свято-Елисаветинского монастыря, регент мон. Иулиания (Денисова)"
REM COMPOSER ""
INDEX 01 45:03:55
TRACK 14 AUDIO
TITLE "Нить судьбы. — Стихи А. Солодовникова и монахини Иулиании (The Thread of Destiny. — Lyrics by A. Solodovnikov and Nun Juliania)"
PERFORMER "Праздничный хор и хор сестер Свято-Елисаветинского монастыря, регент мон. Иулиания (Денисова)"
REM COMPOSER ""
INDEX 01 48:58:16
TRACK 15 AUDIO
TITLE "Нищая братия. — Духовный стих (The Poor Brethren. — Traditional canticle)"
PERFORMER "Праздничный хор и хор сестер Свято-Елисаветинского монастыря, регент мон. Иулиания (Денисова)"
REM COMPOSER ""
INDEX 01 51:36:65
Логи проверки качества
Лог fooCDtect
fooCDtect - foobar2000 + auCDtect, baralgin.

auCDtect: CD records authenticity detector, version 0.8.2
Copyright (c) 2004 Oleg Berngardt. All rights reserved.
Copyright (c) 2004 Alexander Djourik. All rights reserved.

mode: 0

===========================================
Track: Всего-то навсего - Хоры Свято-Елисаветинского монастыря - 2012

Processing file: [Всего-то навсего - Хоры Свято-Елисаветинского монастыря - 2012.aucdtect]
Detected average hi-boundary frequency: 2.006765e+004 Hz
Detected average lo-boundary frequency: 1.287281e+004 Hz
Detected average hi-cut frequency: 2.139001e+004 Hz
Detected average lo-cut frequency: 9.006947e+003 Hz
Maximum probablis boundary frequency: 2.189100e+004 Hz
Coefficient of nonlinearity of a phase: 1.594491e-001
First order smothness: 3.281434e-001
Second order smothness: 6.998822e-001

------------------------------------------------------------
This track looks like CDDA with probability 100%

===========================================
Лог Dynamic Range Meter
foobar2000 1.5.5 / Dynamic Range Meter 1.1.1
log date: 2020-11-28 20:01:40

--------------------------------------------------------------------------------
Statistics for: ?-Всего-то навсего - Хоры Свято-Елисаветинского монастыря - 2012
Number of samples: 146010984
Duration: 55:11
--------------------------------------------------------------------------------

Left Right

Peak Value: -0.37 dB --- -2.05 dB
Avg RMS: -16.42 dB --- -17.54 dB
DR channel: 12.42 dB --- 11.44 dB
--------------------------------------------------------------------------------

Official DR Value: DR12

Samplerate: 44100 Hz
Channels: 2
Bits per sample: 16
Bitrate: 748 kbps
Codec: FLAC
================================================================================
Tracks Tau Analyzer pic
fooCDtect pic
DR Meter pic
Скриншоты спектра частот
Spectrogram auCDtect TM pic
Spectrum Tau Analyzer pic
Frequency Tau Analyzer pic
Об альбоме
Всего-то навсего – полюби! И жизнь наполнится смыслом, все вокруг – цветы, камни, море, птицы – будут радовать тебя, говорить о Божией любви. Ты только полюби! Найди в себе это драгоценное чувство, не осуждай, не завидуй, не унывай, полюби всех, кого Бог посылает на твоем пути – всего-то навсего, полюби! Всего-то навсего... Как это трудно! Порой невозможно нам, грешным. Но Господь дает утешение: это Божия Матерь, святые и простые люди, монахи и миряне, показавшие нам образ истинной Любви, веры, покаяния. Об этом – собранные на диске песни.
Монахиня Иулиания (Денисова)


Уникальность нового альбома «Всего-то навсего» состоит в том, что два хора Свято-Елисаветинского монастыря мирян и монашествующих сестер поют вместе, одновременно. При этом в большинстве композиций сестры ведут основную мелодию, а Праздничный хор исполняет роль аккомпанемента, имитируя игру на гуслях или гитаре, свойственную песенному жанру.
Стилевая палитра диска весьма разнообразна: здесь и старинные духовные песни, и славянский фольклор, и музыка Чайковского, и песнопения наших современников. По выражению протодиакона Андрея Кураева, это своего рода народный «факультатив», в котором душа человека получает и отдохновение, и утешение, и ненавязчивое поучение.
Все обработки выполнены одним автором регентом монастырских хоров монахиней Иулианией (Денисовой) в найденной специально для этого альбома творческой манере. Вероятно, поэтому он воспринимается как единое целое и слушается на одном дыхании.
Доп. информация
Звукорежиссеры: Д. Коршакевич, К. Карманов

Sound Directors: D. Korshakevich, K. Karmanov
pic


Download

Войдите на сайт, чтобы увидеть полную информацию.

Как скачивать  ·   Правила трекера


_________________
«…В жизни у меня только одна задача – храм этот оберегать и богатства его приумножать. Каждый кирпичик этого храма, каждая вечная книга, каждая вечная мелодия несут в себе спрессованный опыт человечества, мысли его и мысли о нём…» (~Стругацкие)
[Профиль]  [ЛС] 
Показать сообщения:    
Ответить на тему

Текущее время: 05-Мар 18:07

Часовой пояс: GMT + 4



Вы не можете начинать темы
Вы не можете отвечать на сообщения
Вы не можете редактировать свои сообщения
Вы не можете удалять свои сообщения
Вы не можете голосовать в опросах
Вы не можете прикреплять файлы к сообщениям
Вы не можете скачивать файлы