Loading...
Error

(Православные песнопения) Песнопения Великого поста и Святой Пасхи - Хор Минского Свято-Петро-Павловского собора. Регент Ирина Денисова - 2005, FLAC (image + .cue), lossless

Ответить на тему
Статистика раздачи
   
 
Автор Сообщение

Petrorin

Стаж: 3 месяца 20 дней

Сообщений: 30

post 06-Дек-2020 20:52

[Цитировать] 

Хор Минского Свято-Петро-Павловского собора. Регент Ирина Денисова / Песнопения Великого поста и Святой Пасхи

pic
Жанр: православные песнопения
Носитель: CD
Страна: Белоруссия
Год издания: 2005
Формат: FLAC (image + .cue)
Битрейт аудио: lossless
Продолжительность: 01:19:40
Источник: собственный рип
Наличие сканов: да
Треклист:
01. Мирная ектения. — Н. Озеров (The Great Litany. — N. Ozerov)
02. Покаяния отверзи ми двери. — Д. Бортнянский (Open to Me the Gates of Repentance. — D. Bortnyansky)
03. На реках Вавилонских. — Знаменный распев, гарм. архид. Романа [Тамберга] (By the Rivers of Babylon. — Znamenny chant, harm. by archdeacon Roman [Tamberg])
04. Стихиры Триоди Постной в Неделю сыропустную, глас 2. — Подобен «Егда от Древа» (Sticherons from Lenten Triodion, Cheesefare Week, tone 2. — Similar to «When from the Tree»)
05. Ирмосы Великого канона Андрея Критского. — Обиход Киево-Печерской Лавры (Heirmoses of the Canon of St. Andrew of Crete. — Everyday chanting of the Kiev Pechersk Laura)
06. Пресвятая Владычице Богородице. Прошения Великого повечерия (All Holy Lady Theotokos. Suffrages of the Great Compline)
07. Господи сил, с нами буди. — Валаамский распев (O Lord of Strength, Be with Us. — Valaam chant)
08. Ектения постовая (The Lenten Litany)
09. Во Царствии Твоем, глас 6 (In Your Kingdom, tone 6)
10. Да исправится молитва моя. — Греческий распев (Let My Prayer be Set Forth. — Greek chant)
11. Ныне Силы Небесныя. — Валаамский распев, обр. еп. Ионафана [Елецких] (Now the Powers of Heaven. — Valaam chant, arr. by bishop Jonathan [Eletzkih])
12. Вкусите и видите. — Валаамский распев, обр. еп. Ионафана [Елецких] (Partake and See. — Valaam chant, arr. by bishop Jonathan [Eletzkih])
13. Днесь висит на Древе. Антифон 15-й в Великий Пяток. — Подобен «Тридневен воскресл еси» (Today He is Hung upon the Tree. Antiphon 15 on Holy Friday. — Similar to «On the Third Day Arose»)
14. Молитву пролию ко Господу. Ирмос 6-й канона, глас 8. — С. Смоленский (Pour out My Prayer to the Canon, tone 8. — S. Smolensky)
15. Душе моя. Кондак Великого канона. — И. Денисова (My Soul. The Kontakion of the Great Canon. — I. Denisova)
16. Кресту Твоему. — Киевский распев. Обиход 1909 г., гарм. М. Ковалевского (To Your Cross. — Kievan chant. Everyday chant 1909, harm. by M. Kovalevsky)
17. Воскресение Твое, Христе Спасе. — Обиход (Your Resurrection, O Christ Our Savior. — Everyday chant)
18. Христос Воскресе. — Обиход (Christ is Risen. — Everyday chant)
19. Плотию уснув. — И. Денисова (After Thou didst Fall Asleep. — I. Denisova)
20. Ангел вопияше. — Валаамский распев, обр. М. Балакирева (Angel Exclaims. — Valaam chant, arr. by M. Balakirev)
21. Христос Воскресе. — Афонский распев (Christ is Risen. — Athos chant)
22. Христос Воскресе. — Греко-латино-славянское (Christ is Risen. — Greek-Latin-Slavonic chant)
Лог создания рипа
Exact Audio Copy V1.5 from 20. February 2020

Отчёт EAC об извлечении, выполненном 26. ноября 2020, 20:07

Хор Минского Свято-Петро-Павловского собора. Регент И. Денисова / Песнопения Великого поста и Святой Пасхи

Дисковод: HL-DT-STDVDRAM GH22NS40 Adapter: 1 ID: 0

Режим чтения : Достоверность
Использование точного потока : Да
Отключение кэша аудио : Да
Использование указателей C2 : Нет

Коррекция смещения при чтении : 667
Способность читать области Lead-in и Lead-out : Нет
Заполнение пропущенных сэмплов тишиной : Да
Удаление блоков с тишиной в начале и конце : Нет
При вычислениях CRC использовались нулевые сэмплы : Да
Интерфейс : Встроенный Win32-интерфейс для Win NT/2000

Выходной формат : Пользовательский кодировщик
Выбранный битрейт : 1024 kBit/s
Качество : Высокий
Добавление ID3-тега : Нет
Утилита сжатия : C:\Program Files (x86)\Exact Audio Copy\Flac\flac.exe
Дополнительные параметры : -V -8 -T "Date=%year%" -T "Genre=%genre%" %source%

TOC извлечённого CD

Трек | Старт | Длительность | Начальный сектор | Конечный сектор
---------------------------------------------------------------------
1 | 0:00.00 | 4:05.70 | 0 | 18444
2 | 4:05.70 | 5:38.46 | 18445 | 43840
3 | 9:44.41 | 5:58.31 | 43841 | 70721
4 | 15:42.72 | 2:15.66 | 70722 | 80912
5 | 17:58.63 | 11:53.33 | 80913 | 134420
6 | 29:52.21 | 2:28.35 | 134421 | 145555
7 | 32:20.56 | 6:28.64 | 145556 | 174719
8 | 38:49.45 | 2:56.46 | 174720 | 187965
9 | 41:46.16 | 6:14.25 | 187966 | 216040
10 | 48:00.41 | 7:09.50 | 216041 | 248265
11 | 55:10.16 | 3:27.67 | 248266 | 263857
12 | 58:38.08 | 1:45.55 | 263858 | 271787
13 | 60:23.63 | 2:12.06 | 271788 | 281693
14 | 62:35.69 | 1:23.28 | 281694 | 287946
15 | 63:59.22 | 2:20.13 | 287947 | 298459
16 | 66:19.35 | 3:07.39 | 298460 | 312523
17 | 69:26.74 | 2:57.04 | 312524 | 325802
18 | 72:24.03 | 0:45.51 | 325803 | 329228
19 | 73:09.54 | 1:28.50 | 329229 | 335878
20 | 74:38.29 | 1:38.28 | 335879 | 343256
21 | 76:16.57 | 2:08.23 | 343257 | 352879
22 | 78:25.05 | 1:15.08 | 352880 | 358512

Характеристики диапазона извлечения и сообщения об ошибках

Выбранный диапазон

Имя файла I:\5. EAC\Песнопения Великого поста и Святой Пасхи.wav

Пиковый уровень 97.3 %
Скорость извлечения 2.1 X
Качество диапазона 99.9 %
CRC теста 403F34C9
CRC копии 403F34C9
Копирование... OK

Ошибок не произошло

AccurateRip: сводка

Трек 1 отсутствует в базе данных
Трек 2 отсутствует в базе данных
Трек 3 отсутствует в базе данных
Трек 4 отсутствует в базе данных
Трек 5 отсутствует в базе данных
Трек 6 отсутствует в базе данных
Трек 7 отсутствует в базе данных
Трек 8 отсутствует в базе данных
Трек 9 отсутствует в базе данных
Трек 10 отсутствует в базе данных
Трек 11 отсутствует в базе данных
Трек 12 отсутствует в базе данных
Трек 13 отсутствует в базе данных
Трек 14 отсутствует в базе данных
Трек 15 отсутствует в базе данных
Трек 16 отсутствует в базе данных
Трек 17 отсутствует в базе данных
Трек 18 отсутствует в базе данных
Трек 19 отсутствует в базе данных
Трек 20 отсутствует в базе данных
Трек 21 отсутствует в базе данных
Трек 22 отсутствует в базе данных

Ни одного трека нет в базе AccurateRip

Конец отчёта

==== Контрольная сумма отчёта 69230DF5FE6C1B408F2020BC65C3538945A29DB4F0767794D3703C51736C78BF ====
Содержание индексной карты (.CUE)
REM GENRE "Православные песнопения"
REM DATE 2005
REM DISCID 5B12AC16
REM COMMENT "ExactAudioCopy v1.5"
PERFORMER "Хор Минского Свято-Петро-Павловского собора. Регент И. Денисова"
TITLE "Песнопения Великого поста и Святой Пасхи"
REM COMPOSER ""
FILE "Песнопения Великого поста и Святой Пасхи.flac" WAVE
TRACK 01 AUDIO
TITLE "Мирная ектения. — Н. Озеров (The Great Litany. — N. Ozerov)"
PERFORMER "Хор Минского Свято-Петро-Павловского собора. Регент И. Денисова"
REM COMPOSER ""
INDEX 01 00:00:00
TRACK 02 AUDIO
TITLE "Покаяния отверзи ми двери. — Д. Бортнянский (Open to Me the Gates of Repentance. — D. Bortnyansky)"
PERFORMER "Хор Минского Свято-Петро-Павловского собора. Регент И. Денисова"
REM COMPOSER ""
INDEX 01 04:05:70
TRACK 03 AUDIO
TITLE "На реках Вавилонских. — Знаменный распев, гарм. архид. Романа [Тамберга] (By the Rivers of Babylon. — Znamenny chant, harm. by archdeacon Roman [Tamberg])"
PERFORMER "Хор Минского Свято-Петро-Павловского собора. Регент И. Денисова"
REM COMPOSER ""
INDEX 01 09:44:41
TRACK 04 AUDIO
TITLE "Стихиры Триоди Постной в Неделю сыропустную, глас 2. — Подобен 'Егда от Древа' (Sticherons from Lenten Triodion, Cheesefare Week, tone 2. — Similar to 'When from the Tree')"
PERFORMER "Хор Минского Свято-Петро-Павловского собора. Регент И. Денисова"
REM COMPOSER ""
INDEX 01 15:42:72
TRACK 05 AUDIO
TITLE "Ирмосы Великого канона Андрея Критского. — Обиход Киево-Печерской Лавры (Heirmoses of the Canon of St. Andrew of Crete. — Everyday chanting of the Kiev Pechersk Laura)"
PERFORMER "Хор Минского Свято-Петро-Павловского собора. Регент И. Денисова"
REM COMPOSER ""
INDEX 01 17:58:63
TRACK 06 AUDIO
TITLE "Пресвятая Владычице Богородице. Прошения Великого повечерия (All Holy Lady Theotokos. Suffrages of the Great Compline)"
PERFORMER "Хор Минского Свято-Петро-Павловского собора. Регент И. Денисова"
REM COMPOSER ""
INDEX 01 29:52:21
TRACK 07 AUDIO
TITLE "Господи сил, с нами буди. — Валаамский распев (O Lord of Strength, Be with Us. — Valaam chant)"
PERFORMER "Хор Минского Свято-Петро-Павловского собора. Регент И. Денисова"
REM COMPOSER ""
INDEX 01 32:20:56
TRACK 08 AUDIO
TITLE "Ектения постовая (The Lenten Litany)"
PERFORMER "Хор Минского Свято-Петро-Павловского собора. Регент И. Денисова"
REM COMPOSER ""
INDEX 01 38:49:45
TRACK 09 AUDIO
TITLE "Во Царствии Твоем, глас 6 (In Your Kingdom, tone 6)"
PERFORMER "Хор Минского Свято-Петро-Павловского собора. Регент И. Денисова"
REM COMPOSER ""
INDEX 01 41:46:16
TRACK 10 AUDIO
TITLE "Да исправится молитва моя. — Греческий распев (Let My Prayer be Set Forth. — Greek chant)"
PERFORMER "Хор Минского Свято-Петро-Павловского собора. Регент И. Денисова"
REM COMPOSER ""
INDEX 01 48:00:41
TRACK 11 AUDIO
TITLE "Ныне Силы Небесныя. — Валаамский распев, обр. еп. Ионафана [Елецких] (Now the Powers of Heaven. — Valaam chant, arr. by bishop Jonathan [Eletzkih])"
PERFORMER "Хор Минского Свято-Петро-Павловского собора. Регент И. Денисова"
REM COMPOSER ""
INDEX 01 55:10:16
TRACK 12 AUDIO
TITLE "Вкусите и видите. — Валаамский распев, обр. еп. Ионафана [Елецких] (Partake and See. — Valaam chant, arr. by bishop Jonathan [Eletzkih])"
PERFORMER "Хор Минского Свято-Петро-Павловского собора. Регент И. Денисова"
REM COMPOSER ""
INDEX 01 58:38:08
TRACK 13 AUDIO
TITLE "Днесь висит на Древе. Антифон 15-й в Великий Пяток. — Подобен 'Тридневен воскресл еси' (Today He is Hung upon the Tree. Antiphon 15 on Holy Friday. — Similar to 'On the Third Day Arose')"
PERFORMER "Хор Минского Свято-Петро-Павловского собора. Регент И. Денисова"
REM COMPOSER ""
INDEX 01 60:23:63
TRACK 14 AUDIO
TITLE "Молитву пролию ко Господу. Ирмос 6-й канона, глас 8. — С. Смоленский (Pour out My Prayer to the Canon, tone 8. — S. Smolensky)"
PERFORMER "Хор Минского Свято-Петро-Павловского собора. Регент И. Денисова"
REM COMPOSER ""
INDEX 01 62:35:69
TRACK 15 AUDIO
TITLE "Душе моя. Кондак Великого канона. — И. Денисова (My Soul. The Kontakion of the Great Canon. — I. Denisova)"
PERFORMER "Хор Минского Свято-Петро-Павловского собора. Регент И. Денисова"
REM COMPOSER ""
INDEX 01 63:59:22
TRACK 16 AUDIO
TITLE "Кресту Твоему. — Киевский распев. Обиход 1909 г., гарм. М. Ковалевского (To Your Cross. — Kievan chant. Everyday chant 1909, harm. by M. Kovalevsky)"
PERFORMER "Хор Минского Свято-Петро-Павловского собора. Регент И. Денисова"
REM COMPOSER ""
INDEX 01 66:19:35
TRACK 17 AUDIO
TITLE "Воскресение Твое, Христе Спасе. — Обиход (Your Resurrection, O Christ Our Savior. — Everyday chant)"
PERFORMER "Хор Минского Свято-Петро-Павловского собора. Регент И. Денисова"
REM COMPOSER ""
INDEX 01 69:26:74
TRACK 18 AUDIO
TITLE "Христос Воскресе. — Обиход (Christ is Risen. — Everyday chant)"
PERFORMER "Хор Минского Свято-Петро-Павловского собора. Регент И. Денисова"
REM COMPOSER ""
INDEX 01 72:24:03
TRACK 19 AUDIO
TITLE "Плотию уснув. — И. Денисова (After Thou didst Fall Asleep. — I. Denisova)"
PERFORMER "Хор Минского Свято-Петро-Павловского собора. Регент И. Денисова"
REM COMPOSER ""
INDEX 01 73:09:54
TRACK 20 AUDIO
TITLE "Ангел вопияше. — Валаамский распев, обр. М. Балакирева (Angel Exclaims. — Valaam chant, arr. by M. Balakirev)"
PERFORMER "Хор Минского Свято-Петро-Павловского собора. Регент И. Денисова"
REM COMPOSER ""
INDEX 01 74:38:29
TRACK 21 AUDIO
TITLE "Христос Воскресе. — Афонский распев (Christ is Risen. — Athos chant)"
PERFORMER "Хор Минского Свято-Петро-Павловского собора. Регент И. Денисова"
REM COMPOSER ""
INDEX 01 76:16:57
TRACK 22 AUDIO
TITLE "Христос Воскресе. — Греко-латино-славянское (Christ is Risen. — Greek-Latin-Slavonic chant)"
PERFORMER "Хор Минского Свято-Петро-Павловского собора. Регент И. Денисова"
REM COMPOSER ""
INDEX 01 78:25:05
Логи проверки качества
Лог fooCDtect
fooCDtect - foobar2000 + auCDtect, baralgin.

auCDtect: CD records authenticity detector, version 0.8.2
Copyright (c) 2004 Oleg Berngardt. All rights reserved.
Copyright (c) 2004 Alexander Djourik. All rights reserved.

mode: 0

===========================================
Track: Песнопения Великого поста и Святой Пасхи

Processing file: [Песнопения Великого поста и Святой Пасхи.aucdtect]
Detected average hi-boundary frequency: 2.004369e+004 Hz
Detected average lo-boundary frequency: 1.247096e+004 Hz
Detected average hi-cut frequency: 2.125680e+004 Hz
Detected average lo-cut frequency: 6.157614e+003 Hz
Maximum probablis boundary frequency: 2.189100e+004 Hz
Coefficient of nonlinearity of a phase: 2.959607e-001
First order smothness: 3.326130e-001
Second order smothness: 6.891146e-001

------------------------------------------------------------
This track looks like CDDA with probability 100%

===========================================
Лог Dynamic Range Meter
foobar2000 1.5.5 / Dynamic Range Meter 1.1.1
log date: 2020-11-26 20:09:27

--------------------------------------------------------------------------------
Statistics for: ?-Песнопения Великого поста и Святой Пасхи
Number of samples: 210805644
Duration: 1:19:40
--------------------------------------------------------------------------------

Left Right

Peak Value: -0.23 dB --- -0.29 dB
Avg RMS: -17.17 dB --- -16.80 dB
DR channel: 13.94 dB --- 13.20 dB
--------------------------------------------------------------------------------

Official DR Value: DR14

Samplerate: 44100 Hz
Channels: 2
Bits per sample: 16
Bitrate: 653 kbps
Codec: FLAC
================================================================================
Tracks Tau Analyzer pic
fooCDtect pic
DR Meter pic
Скриншоты спектра частот
Spectrogram auCDtect TM pic
Spectrum Tau Analyzer pic
Frequency Tau Analyzer pic
pic


Download

Войдите на сайт, чтобы увидеть полную информацию.

Как скачивать  ·   Правила трекера


_________________
«…В жизни у меня только одна задача – храм этот оберегать и богатства его приумножать. Каждый кирпичик этого храма, каждая вечная книга, каждая вечная мелодия несут в себе спрессованный опыт человечества, мысли его и мысли о нём…» (~Стругацкие)
[Профиль]  [ЛС] 

Иван Владимирович

Стаж: 1 год 1 месяц

Сообщений: 51

Russia

post 23-Дек-2020 13:34 (спустя 16 дней)

[Цитировать] 

Ребят, спаси вас Господь за рип!!! Станите, пожалуйста, на раздачу?
[Профиль]  [ЛС] 

Petrorin

Стаж: 3 месяца 20 дней

Сообщений: 30

post 23-Дек-2020 16:57 (спустя 3 часа)

[Цитировать] 

Иван Владимирович писал(а):

Ребят, спаси вас Господь за рип!!! Станите, пожалуйста, на раздачу?
Во славу Божию! Стоим. Пока каждый день Smile Но это пока, так что старайтесь не уходить со скачанных раздач, а то одного сидера можно дооолго ждать Question

_________________
«…В жизни у меня только одна задача – храм этот оберегать и богатства его приумножать. Каждый кирпичик этого храма, каждая вечная книга, каждая вечная мелодия несут в себе спрессованный опыт человечества, мысли его и мысли о нём…» (~Стругацкие)
[Профиль]  [ЛС] 
Показать сообщения:    
Ответить на тему

Текущее время: 09-Мар 13:46

Часовой пояс: GMT + 4



Вы не можете начинать темы
Вы не можете отвечать на сообщения
Вы не можете редактировать свои сообщения
Вы не можете удалять свои сообщения
Вы не можете голосовать в опросах
Вы не можете прикреплять файлы к сообщениям
Вы не можете скачивать файлы