Loading...
Error

(Православные песнопения) Мы - Праздничный хор Свято-Елисаветинского монастыря. Регент мон. Иулиания (Денисова) - 2020, FLAC (image + .cue), lossless

Ответить на тему
Статистика раздачи
   
 
Автор Сообщение

Petrorin

Стаж: 2 месяца 3 дня

Сообщений: 29

post 06-Дек-2020 19:41

[Цитировать] 

Праздничный хор Свято-Елисаветинского монастыря. Регент мон. Иулиания (Денисова) / Мы

pic
Жанр: православные песнопения
Носитель: CD
Страна: Белоруссия
Год издания: 2020
Формат: FLAC (image + .cue)
Битрейт аудио: lossless
Продолжительность: 00:38:47
Источник: собственный рип
Наличие сканов: да
Треклист:
01. Утоли моя печали (Assuage My Sorrows)
02. Крест (The Cross)
03. Мой государь (My Sovereign)
04. Отцы пустынники (The Desert Fathers)
05. Спаси мя, Боже мой [тропарь по 6-й кафисме] (Save Me, O My God [troparion after the 6th Kathisma])
06. Ин мир тебе [тропарь по 16-й кафисме] (The Other World Awaits Thee [troparion after the 16th Kathisma])
07. Согреших к Тебе, Спасе [тропарь по 17-й кафисме] (I Have Sinned Before Thee, O My Saviour [troparion after the 17th Kathisma])
08. Сон мне приснился (Had a Dream)
09. Во мне любови было мало (I Had Too Little Love)
10. На тихой дудочке любви (The Quiet Flute of Love)
11. Мы (This Is Us)
12. Всего-то навсего (You Simply Have to Love)
13. Надежды маленький оркестрик [концертная запись] (The Little Orchestra of Hope [live recording])
Лог создания рипа
Exact Audio Copy V1.5 from 20. February 2020

Отчёт EAC об извлечении, выполненном 21. ноября 2020, 22:00

Праздничный хор Свято-Елисаветинского монастыря, регент монахиня Иулиания (Денисова) / Мы

Дисковод: HL-DT-STDVDRAM GH22NS40 Adapter: 1 ID: 0

Режим чтения : Достоверность
Использование точного потока : Да
Отключение кэша аудио : Да
Использование указателей C2 : Нет

Коррекция смещения при чтении : 667
Способность читать области Lead-in и Lead-out : Нет
Заполнение пропущенных сэмплов тишиной : Да
Удаление блоков с тишиной в начале и конце : Нет
При вычислениях CRC использовались нулевые сэмплы : Да
Интерфейс : Встроенный Win32-интерфейс для Win NT/2000

Выходной формат : Пользовательский кодировщик
Выбранный битрейт : 1024 kBit/s
Качество : Высокий
Добавление ID3-тега : Нет
Утилита сжатия : C:\Program Files (x86)\Exact Audio Copy\Flac\flac.exe
Дополнительные параметры : -V -8 -T "Date=%year%" -T "Genre=%genre%" %source%

TOC извлечённого CD

Трек | Старт | Длительность | Начальный сектор | Конечный сектор
---------------------------------------------------------------------
1 | 0:00.00 | 3:28.17 | 0 | 15616
2 | 3:28.17 | 3:21.69 | 15617 | 30760
3 | 6:50.11 | 4:16.21 | 30761 | 49981
4 | 11:06.32 | 3:38.71 | 49982 | 66402
5 | 14:45.28 | 1:38.05 | 66403 | 73757
6 | 16:23.33 | 1:30.17 | 73758 | 80524
7 | 17:53.50 | 2:02.69 | 80525 | 89743
8 | 19:56.44 | 3:09.25 | 89744 | 103943
9 | 23:05.69 | 2:40.33 | 103944 | 115976
10 | 25:46.27 | 3:18.05 | 115977 | 130831
11 | 29:04.32 | 2:15.06 | 130832 | 140962
12 | 31:19.38 | 4:43.10 | 140963 | 162197
13 | 36:02.48 | 2:44.07 | 162198 | 174504

Характеристики диапазона извлечения и сообщения об ошибках

Выбранный диапазон

Имя файла I:\5. EAC\Мы - Праздничный хор Свято-Елисаветинского монастыря - 2020.wav

Пиковый уровень 95.2 %
Скорость извлечения 1.8 X
Качество диапазона 100.0 %
CRC теста 2C0F823B
CRC копии 2C0F823B
Копирование... OK

Ошибок не произошло

AccurateRip: сводка

Трек 1 отсутствует в базе данных
Трек 2 отсутствует в базе данных
Трек 3 отсутствует в базе данных
Трек 4 отсутствует в базе данных
Трек 5 отсутствует в базе данных
Трек 6 отсутствует в базе данных
Трек 7 отсутствует в базе данных
Трек 8 отсутствует в базе данных
Трек 9 отсутствует в базе данных
Трек 10 отсутствует в базе данных
Трек 11 отсутствует в базе данных
Трек 12 отсутствует в базе данных
Трек 13 отсутствует в базе данных

Ни одного трека нет в базе AccurateRip

Конец отчёта

==== Контрольная сумма отчёта B9704AE711111CF57886744EA4BE6A914A02E8C0E1D1564AF9A1A0BB844BBB26 ====
Содержание индексной карты (.CUE)
REM GENRE "Православные песнопения"
REM DATE 2020
REM DISCID C309160D
REM COMMENT "ExactAudioCopy v1.5"
PERFORMER "Праздничный хор Свято-Елисаветинского монастыря, регент монахиня Иулиания (Денисова)"
TITLE "Мы"
REM COMPOSER ""
FILE "Мы - Праздничный хор Свято-Елисаветинского монастыря - 2020.flac" WAVE
TRACK 01 AUDIO
TITLE "Утоли моя печали (Assuage My Sorrows)"
PERFORMER "Праздничный хор Свято-Елисаветинского монастыря, регент монахиня Иулиания (Денисова)"
REM COMPOSER ""
INDEX 01 00:00:00
TRACK 02 AUDIO
TITLE "Крест (The Cross)"
PERFORMER "Праздничный хор Свято-Елисаветинского монастыря, регент монахиня Иулиания (Денисова)"
REM COMPOSER ""
INDEX 01 03:28:17
TRACK 03 AUDIO
TITLE "Мой государь (My Sovereign)"
PERFORMER "Праздничный хор Свято-Елисаветинского монастыря, регент монахиня Иулиания (Денисова)"
REM COMPOSER ""
INDEX 01 06:50:11
TRACK 04 AUDIO
TITLE "Отцы пустынники (The Desert Fathers)"
PERFORMER "Праздничный хор Свято-Елисаветинского монастыря, регент монахиня Иулиания (Денисова)"
REM COMPOSER ""
INDEX 01 11:06:32
TRACK 05 AUDIO
TITLE "Спаси мя, Боже мой [тропарь по 6-й кафисме] (Save Me, O My God [troparion after the 6th Kathisma])"
PERFORMER "Праздничный хор Свято-Елисаветинского монастыря, регент монахиня Иулиания (Денисова)"
REM COMPOSER ""
INDEX 01 14:45:28
TRACK 06 AUDIO
TITLE "Ин мир тебе [тропарь по 16-й кафисме] (The Other World Awaits Thee [troparion after the 16th Kathisma])"
PERFORMER "Праздничный хор Свято-Елисаветинского монастыря, регент монахиня Иулиания (Денисова)"
REM COMPOSER ""
INDEX 01 16:23:33
TRACK 07 AUDIO
TITLE "Согреших к Тебе, Спасе [тропарь по 17-й кафисме] (I Have Sinned Before Thee, O My Saviour [troparion after the 17th Kathisma])"
PERFORMER "Праздничный хор Свято-Елисаветинского монастыря, регент монахиня Иулиания (Денисова)"
REM COMPOSER ""
INDEX 01 17:53:50
TRACK 08 AUDIO
TITLE "Сон мне приснился (Had a Dream)"
PERFORMER "Праздничный хор Свято-Елисаветинского монастыря, регент монахиня Иулиания (Денисова)"
REM COMPOSER ""
INDEX 01 19:56:44
TRACK 09 AUDIO
TITLE "Во мне любови было мало (I Had Too Little Love)"
PERFORMER "Праздничный хор Свято-Елисаветинского монастыря, регент монахиня Иулиания (Денисова)"
REM COMPOSER ""
INDEX 01 23:05:69
TRACK 10 AUDIO
TITLE "На тихой дудочке любви (The Quiet Flute of Love)"
PERFORMER "Праздничный хор Свято-Елисаветинского монастыря, регент монахиня Иулиания (Денисова)"
REM COMPOSER ""
INDEX 01 25:46:27
TRACK 11 AUDIO
TITLE "Мы (This Is Us)"
PERFORMER "Праздничный хор Свято-Елисаветинского монастыря, регент монахиня Иулиания (Денисова)"
REM COMPOSER ""
INDEX 01 29:04:32
TRACK 12 AUDIO
TITLE "Всего-то навсего (You Simply Have to Love)"
PERFORMER "Праздничный хор Свято-Елисаветинского монастыря, регент монахиня Иулиания (Денисова)"
REM COMPOSER ""
INDEX 01 31:19:38
TRACK 13 AUDIO
TITLE "Надежды маленький оркестрик [концертная запись] (The Little Orchestra of Hope [live recording])"
PERFORMER "Праздничный хор Свято-Елисаветинского монастыря, регент монахиня Иулиания (Денисова)"
REM COMPOSER ""
INDEX 01 36:02:48
Логи проверки качества
Лог fooCDtect
fooCDtect - foobar2000 + auCDtect, baralgin.

auCDtect: CD records authenticity detector, version 0.8.2
Copyright (c) 2004 Oleg Berngardt. All rights reserved.
Copyright (c) 2004 Alexander Djourik. All rights reserved.

mode: 0

===========================================
Track: Мы - Праздничный хор Свято-Елисаветинского монастыря - 2020

Processing file: [Мы - Праздничный хор Свято-Елисаветинского монастыря - 2020.aucdtect]
Detected average hi-boundary frequency: 2.021972e+004 Hz
Detected average lo-boundary frequency: 1.299448e+004 Hz
Detected average hi-cut frequency: 2.105594e+004 Hz
Detected average lo-cut frequency: 9.136434e+003 Hz
Maximum probablis boundary frequency: 2.189100e+004 Hz
Coefficient of nonlinearity of a phase: 2.367749e-001
First order smothness: 3.330672e-001
Second order smothness: 7.062909e-001

------------------------------------------------------------
This track looks like CDDA with probability 100%

===========================================
Лог Dynamic Range Meter
foobar2000 1.5.5 / Dynamic Range Meter 1.1.1
log date: 2020-11-21 22:06:14

--------------------------------------------------------------------------------
Statistics for: ?-Мы - Праздничный хор Свято-Елисаветинского монастыря - 2020
Number of samples: 102608940
Duration: 38:47
--------------------------------------------------------------------------------

Left Right

Peak Value: -0.42 dB --- -0.42 dB
Avg RMS: -17.17 dB --- -17.50 dB
DR channel: 12.10 dB --- 12.37 dB
--------------------------------------------------------------------------------

Official DR Value: DR12

Samplerate: 44100 Hz
Channels: 2
Bits per sample: 16
Bitrate: 691 kbps
Codec: FLAC
================================================================================
fooCDtect pic
Tracks Tau Analyzer pic
DR Meter pic
Скриншоты спектра частот
Spectrogram auCDtect TM pic
Spectrum Tau Analyzer pic
Frequency Tau Analyzer pic
Об альбоме
Замысел нового альбома родился давно: это песнопения, песни и хоровые сочинения разных авторов, большинство из которых – певчие и друзья Праздничного хора. Теперь идея получила свое воплощение с названием «Мы». Мы – это и участники коллектива, и все верующие, кому небезразлична тема покаяния и любви, выраженная в этой музыке.

The concept of the new album was born a long time ago: these are chants, songs and choral works by various authors, most of whom are singers and friends of the Festive Choir. This concept comes to life now with the name This Is Us. The pronoun We includes not only us as the members of the choir, but also all believers who care about the subject of repentance and love which is expressed in this music.
Доп. информация
Звукорежиссеры: К. Карманов, Д. Коршакевич

Sound Directors: K. Karmanov, D. Korshakevich
pic


Download

Войдите на сайт, чтобы увидеть полную информацию.

Как скачивать  ·   Правила трекера


_________________
«…В жизни у меня только одна задача – храм этот оберегать и богатства его приумножать. Каждый кирпичик этого храма, каждая вечная книга, каждая вечная мелодия несут в себе спрессованный опыт человечества, мысли его и мысли о нём…» (~Стругацкие)
[Профиль]  [ЛС] 

arch_Elijah

Стаж: 8 лет 4 месяца

Сообщений: 190

Откуда: KIEV

Ukraine

post 07-Дек-2020 12:13 (спустя 16 часов)

[Цитировать] 

Спасибо, сольём, слуханём!

_________________
орешек знаний твёрд...
[Профиль]  [ЛС] 
Показать сообщения:    
Ответить на тему

Текущее время: 22-Янв 16:43

Часовой пояс: GMT + 4



Вы не можете начинать темы
Вы не можете отвечать на сообщения
Вы не можете редактировать свои сообщения
Вы не можете удалять свои сообщения
Вы не можете голосовать в опросах
Вы не можете прикреплять файлы к сообщениям
Вы не можете скачивать файлы