Loading...
Error

(Православные песнопения) Светлое горение (Песни паломника) - Сестры Свято-Елисаветинского монастыря. Регент послушница Ирина Денисова - 2012, FLAC (image + .cue), lossless

Ответить на тему
Статистика раздачи
   
 
Автор Сообщение

Petrorin

Стаж: 2 месяца 8 дней

Сообщений: 29

post 06-Дек-2020 19:22

[Цитировать] 

Сестры Свято-Елисаветинского монастыря. Регент послушница Ирина Денисова / Светлое горение (Песни паломника)

pic
Жанр: православные песнопения
Носитель: CD
Страна: Белоруссия
Год издания: 2012
Формат: FLAC (image + .cue)
Битрейт аудио: lossless
Продолжительность: 01:04:23
Источник: собственный рип
Наличие сканов: да
Треклист:
01. Слава Богу за все! (Praise to the Lord for Everything!)
02. Утоли моя печали (Assuage My Sorrow)
03. Как по Божией Горе (старинный кант) (Holy Land)
04. О, Небесная Обитель (гимн свт. Николаю) (Hymn to St. Nicolas)
05. Ксения Блаженная (Blessed Xenia)
06. Батюшка наш Серафим (Our Father Seraphim)
07. Преподобный Сергий (Reverend Sergiy)
08. Житейское море (The Worldly Sea)
09. В ночном саду (In the Garden at Night)
10. Иисусе мой Прелюбезный (старинный кант) (A Song of Prayer)
11. Плач Адама (старинный духовный стих) (Adam's Lament)
12. Как залезло красное солнце (старинный духовный стих) (When the Sun Went Down)
13. Шел Преподобный (A Reverend's Path)
14. Где цветочек тот прекрасный? (Where Is That Beautiful Flower?)
15. Инок (старинный духовный стих) (A Monk)
16. Ночь тиха (The Night Is Quiet)
Лог создания рипа
Exact Audio Copy V1.5 from 20. February 2020

Отчёт EAC об извлечении, выполненном 10. ноября 2020, 15:02

Сестры Свято-Елисаветинского монастыря, регент послушница Ирина Денисова / Светлое горение (Песни паломника)

Дисковод: HL-DT-STDVDRAM GH22NS40 Adapter: 1 ID: 0

Режим чтения : Достоверность
Использование точного потока : Да
Отключение кэша аудио : Да
Использование указателей C2 : Нет

Коррекция смещения при чтении : 667
Способность читать области Lead-in и Lead-out : Нет
Заполнение пропущенных сэмплов тишиной : Да
Удаление блоков с тишиной в начале и конце : Нет
При вычислениях CRC использовались нулевые сэмплы : Да
Интерфейс : Встроенный Win32-интерфейс для Win NT/2000

Выходной формат : Пользовательский кодировщик
Выбранный битрейт : 1024 kBit/s
Качество : Высокий
Добавление ID3-тега : Нет
Утилита сжатия : C:\Program Files (x86)\Exact Audio Copy\Flac\flac.exe
Дополнительные параметры : -V -8 -T "Date=%year%" -T "Genre=%genre%" %source%

TOC извлечённого CD

Трек | Старт | Длительность | Начальный сектор | Конечный сектор
---------------------------------------------------------------------
1 | 0:00.00 | 5:44.62 | 0 | 25861
2 | 5:44.62 | 1:38.42 | 25862 | 33253
3 | 7:23.29 | 3:48.51 | 33254 | 50404
4 | 11:12.05 | 4:12.26 | 50405 | 69330
5 | 15:24.31 | 7:33.58 | 69331 | 103363
6 | 22:58.14 | 3:54.11 | 103364 | 120924
7 | 26:52.25 | 3:34.40 | 120925 | 137014
8 | 30:26.65 | 2:58.08 | 137015 | 150372
9 | 33:24.73 | 3:19.30 | 150373 | 165327
10 | 36:44.28 | 3:56.42 | 165328 | 183069
11 | 40:40.70 | 2:36.62 | 183070 | 194831
12 | 43:17.57 | 3:53.01 | 194832 | 212307
13 | 47:10.58 | 3:53.26 | 212308 | 229808
14 | 51:04.09 | 4:59.35 | 229809 | 252268
15 | 56:03.44 | 3:58.52 | 252269 | 270170
16 | 60:02.21 | 4:20.73 | 270171 | 289743

Характеристики диапазона извлечения и сообщения об ошибках

Выбранный диапазон

Имя файла I:\5. EAC\Светлое горение - Сестры Свято-Елисаветинского монастыря - 2012.wav

Пиковый уровень 98.5 %
Скорость извлечения 2.1 X
Качество диапазона 100.0 %
CRC теста 985CBC9C
CRC копии 985CBC9C
Копирование... OK

Ошибок не произошло

AccurateRip: сводка

Трек 1 точность не определена (достоверность 1) [3F8EEF31], AccurateRip вернул [DA08D4C4] (AR v2)
Трек 2 точность не определена (достоверность 1) [A80540BB], AccurateRip вернул [0360797D] (AR v2)
Трек 3 точность не определена (достоверность 1) [BDB9BC69], AccurateRip вернул [F9BEC0C5] (AR v2)
Трек 4 точность не определена (достоверность 1) [B910FDAE], AccurateRip вернул [D9B79571] (AR v2)
Трек 5 точность не определена (достоверность 1) [07AD2AF3], AccurateRip вернул [0840D8AA] (AR v2)
Трек 6 точность не определена (достоверность 1) [81F17663], AccurateRip вернул [683A5EDA] (AR v2)
Трек 7 точность не определена (достоверность 1) [D67023CF], AccurateRip вернул [FF6A2B2A] (AR v2)
Трек 8 точность не определена (достоверность 1) [C1C57941], AccurateRip вернул [0C5D9D65] (AR v2)
Трек 9 точность не определена (достоверность 1) [AF74DF05], AccurateRip вернул [FDE72FA8] (AR v2)
Трек 10 точность не определена (достоверность 1) [67189F4B], AccurateRip вернул [EF9C0F64] (AR v2)
Трек 11 точность не определена (достоверность 1) [AFD079B3], AccurateRip вернул [05DA0245] (AR v2)
Трек 12 точность не определена (достоверность 1) [3C88126B], AccurateRip вернул [147E8C5B] (AR v2)
Трек 13 точность не определена (достоверность 1) [32B4AE1E], AccurateRip вернул [92B4AEDD] (AR v2)
Трек 14 точность не определена (достоверность 1) [E90568E3], AccurateRip вернул [BC97D60D] (AR v2)
Трек 15 точность не определена (достоверность 1) [2E006F99], AccurateRip вернул [98D58C64] (AR v2)
Трек 16 точность не определена (достоверность 1) [86C83242], AccurateRip вернул [2A21537D] (AR v2)

Ни один трек не прошёл проверки на точность
В вашей базе может быть иной вариант штамповки диска

Конец отчёта

==== Контрольная сумма отчёта 3CE33210C3D8CF1C8525E79E0656D9BA3D688263BF5160741D90E6181244D007 ====
Содержание индексной карты (.CUE)
REM GENRE "Православные песнопения"
REM DATE 2012
REM DISCID DC0F1710
REM COMMENT "ExactAudioCopy v1.5"
PERFORMER "Сестры Свято-Елисаветинского монастыря, регент послушница Ирина Денисова"
TITLE "Светлое горение (Песни паломника)"
REM COMPOSER ""
FILE "Светлое горение - Сестры Свято-Елисаветинского монастыря - 2012.flac" WAVE
TRACK 01 AUDIO
TITLE "Слава Богу за все! (Praise to the Lord for Everything!)"
PERFORMER "Сестры Свято-Елисаветинского монастыря, регент послушница Ирина Денисова"
REM COMPOSER ""
INDEX 01 00:00:00
TRACK 02 AUDIO
TITLE "Утоли моя печали (муз. Гончарова) (Assuage My Sorrow)"
PERFORMER "Сестры Свято-Елисаветинского монастыря, регент послушница Ирина Денисова"
REM COMPOSER ""
INDEX 01 05:44:62
TRACK 03 AUDIO
TITLE "Как по Божией Горе (старинный кант) (Holy Land)"
PERFORMER "Сестры Свято-Елисаветинского монастыря, регент послушница Ирина Денисова"
REM COMPOSER ""
INDEX 01 07:23:29
TRACK 04 AUDIO
TITLE "О, Небесная Обитель (гимн свт. Николаю) (Hymn to St. Nicolas)"
PERFORMER "Сестры Свято-Елисаветинского монастыря, регент послушница Ирина Денисова"
REM COMPOSER ""
INDEX 01 11:12:05
TRACK 05 AUDIO
TITLE "Ксения Блаженная (Blessed Xenia)"
PERFORMER "Сестры Свято-Елисаветинского монастыря, регент послушница Ирина Денисова"
REM COMPOSER ""
INDEX 01 15:24:31
TRACK 06 AUDIO
TITLE "Батюшка наш Серафим (сл. Н. Назаренко) (Our Father Seraphim)"
PERFORMER "Сестры Свято-Елисаветинского монастыря, регент послушница Ирина Денисова"
REM COMPOSER ""
INDEX 01 22:58:14
TRACK 07 AUDIO
TITLE "Преподобный Сергий (сл. И. Языковой, муз. прот. Игоря Лепешинского) (Reverend Sergiy)"
PERFORMER "Сестры Свято-Елисаветинского монастыря, регент послушница Ирина Денисова"
REM COMPOSER ""
INDEX 01 26:52:25
TRACK 08 AUDIO
TITLE "Житейское море (сл. митр. Иосифа Ростовского, муз. архид. Романа [Тамберга]) (The Worldly Sea)"
PERFORMER "Сестры Свято-Елисаветинского монастыря, регент послушница Ирина Денисова"
REM COMPOSER ""
INDEX 01 30:26:65
TRACK 09 AUDIO
TITLE "В ночном саду (сл. и муз. В. Шишкарева) (In the Garden at Night)"
PERFORMER "Сестры Свято-Елисаветинского монастыря, регент послушница Ирина Денисова"
REM COMPOSER ""
INDEX 01 33:24:73
TRACK 10 AUDIO
TITLE "Иисусе мой Прелюбезный (старинный кант, сл. свт. Димитрия Ростовского) (A Song of Prayer)"
PERFORMER "Сестры Свято-Елисаветинского монастыря, регент послушница Ирина Денисова"
REM COMPOSER ""
INDEX 01 36:44:28
TRACK 11 AUDIO
TITLE "Плач Адама (старинный духовный стих) (Adam's Lament)"
PERFORMER "Сестры Свято-Елисаветинского монастыря, регент послушница Ирина Денисова"
REM COMPOSER ""
INDEX 01 40:40:70
TRACK 12 AUDIO
TITLE "Как залезло красное солнце (старинный духовный стих) (When the Sun Went Down)"
PERFORMER "Сестры Свято-Елисаветинского монастыря, регент послушница Ирина Денисова"
REM COMPOSER ""
INDEX 01 43:17:57
TRACK 13 AUDIO
TITLE "Шел Преподобный (A Reverend's Path)"
PERFORMER "Сестры Свято-Елисаветинского монастыря, регент послушница Ирина Денисова"
REM COMPOSER ""
INDEX 01 47:10:58
TRACK 14 AUDIO
TITLE "Где цветочек тот прекрасный? (Where Is That Beautiful Flower?)"
PERFORMER "Сестры Свято-Елисаветинского монастыря, регент послушница Ирина Денисова"
REM COMPOSER ""
INDEX 01 51:04:09
TRACK 15 AUDIO
TITLE "Инок (старинный духовный стих) (A Monk)"
PERFORMER "Сестры Свято-Елисаветинского монастыря, регент послушница Ирина Денисова"
REM COMPOSER ""
INDEX 01 56:03:44
TRACK 16 AUDIO
TITLE "Ночь тиха (сл. и муз. С.И. Миропольского) (The Night Is Quiet)"
PERFORMER "Сестры Свято-Елисаветинского монастыря, регент послушница Ирина Денисова"
REM COMPOSER ""
INDEX 01 60:02:21
Логи проверки качества
Лог fooCDtect
fooCDtect - foobar2000 + auCDtect, baralgin.

auCDtect: CD records authenticity detector, version 0.8.2
Copyright (c) 2004 Oleg Berngardt. All rights reserved.
Copyright (c) 2004 Alexander Djourik. All rights reserved.

mode: 0

===========================================
Track: Светлое горение - Сестры Свято-Елисаветинского монастыря - 2012

Processing file: [Светлое горение - Сестры Свято-Елисаветинского монастыря - 2012.aucdtect]
Detected average hi-boundary frequency: 2.020479e+004 Hz
Detected average lo-boundary frequency: 1.340868e+004 Hz
Detected average hi-cut frequency: 2.073950e+004 Hz
Detected average lo-cut frequency: 7.063330e+003 Hz
Maximum probablis boundary frequency: 2.189100e+004 Hz
Coefficient of nonlinearity of a phase: 9.806378e-002
First order smothness: 3.389272e-001
Second order smothness: 6.790480e-001

------------------------------------------------------------
This track looks like CDDA with probability 87%

===========================================
Лог Dynamic Range Meter
foobar2000 1.5.5 / Dynamic Range Meter 1.1.1
log date: 2020-11-10 15:04:34

--------------------------------------------------------------------------------
Statistics for: ?-Светлое горение - Сестры Свято-Елисаветинского монастыря - 2012
Number of samples: 170369472
Duration: 1:04:23
--------------------------------------------------------------------------------

Left Right

Peak Value: -0.12 dB --- -0.72 dB
Avg RMS: -18.60 dB --- -17.61 dB
DR channel: 14.65 dB --- 13.67 dB
--------------------------------------------------------------------------------

Official DR Value: DR14

Samplerate: 44100 Hz
Channels: 2
Bits per sample: 16
Bitrate: 584 kbps
Codec: FLAC
================================================================================
fooCDtect pic
Tracks Tau Analyzer pic
DR Meter pic
Скриншоты спектра частот
Spectrogram auCDtect TM pic
Spectrum Tau Analyzer pic
Frequency Tau Analyzer pic
Доп. информация
Звукозапись, сведение Вадим Киранов

Sound producer Vadim Kiranov
pic
Download

Войдите на сайт, чтобы увидеть полную информацию.

Как скачивать  ·   Правила трекера


_________________
«…В жизни у меня только одна задача – храм этот оберегать и богатства его приумножать. Каждый кирпичик этого храма, каждая вечная книга, каждая вечная мелодия несут в себе спрессованный опыт человечества, мысли его и мысли о нём…» (~Стругацкие)
[Профиль]  [ЛС] 
Показать сообщения:    
Ответить на тему

Текущее время: 27-Янв 13:22

Часовой пояс: GMT + 4



Вы не можете начинать темы
Вы не можете отвечать на сообщения
Вы не можете редактировать свои сообщения
Вы не можете удалять свои сообщения
Вы не можете голосовать в опросах
Вы не можете прикреплять файлы к сообщениям
Вы не можете скачивать файлы