Loading...
Error

(Православные песнопения) Ищите Бога (Песни паломника) - Праздничный хор Свято-Елисаветинского монастыря. Регент мон. Иулиания (Денисова) - 2016, FLAC (image + .cue), lossless

Ответить на тему
Статистика раздачи
   
 
Автор Сообщение

Petrorin

Стаж: 2 месяца

Сообщений: 29

post 06-Дек-2020 19:11

[Цитировать] 

Праздничный хор Свято-Елисаветинского монастыря. Регент мон. Иулиания (Денисова) / Ищите Бога (Песни паломника)

pic
Жанр: православные песнопения
Носитель: CD
Страна: Белоруссия
Год издания: 2016
Формат: FLAC (image + .cue)
Битрейт аудио: lossless
Продолжительность: 00:37:25
Источник: собственный рип
Наличие сканов: да
Треклист:
01. Ищите Бога (Seek the Lord)
02. Так дано много (So Much Is Given)
03. Как по Божией горе (Holy Land)
04. Душа человеча (Human Soul)
05. Французская Рождественская песня (A French Carol)
06. Божьей помощью живу (By God's Help I Live)
07. Причитание (Lament)
08. Русь называют святою (They Call Russia Holy)
09. Сохрани, Господь (Preserve Them, Oh Lord)
10. Господи, Боже мой, благослови народ Твой (Oh Lord My God, Bless Thy People)
11. Ой, Сербия, Божий доме (Oh Serbia, the House of God)
12. Наша вера (Our Faith)
Лог создания рипа
Exact Audio Copy V1.5 from 20. February 2020

Отчёт EAC об извлечении, выполненном 11. ноября 2020, 18:09

Праздничный хор Свято-Елисаветинского монастыря, регент монахиня Иулиания (Денисова) / Ищите Бога (Песни паломника)

Дисковод: HL-DT-STDVDRAM GH22NS40 Adapter: 1 ID: 0

Режим чтения : Достоверность
Использование точного потока : Да
Отключение кэша аудио : Да
Использование указателей C2 : Нет

Коррекция смещения при чтении : 667
Способность читать области Lead-in и Lead-out : Нет
Заполнение пропущенных сэмплов тишиной : Да
Удаление блоков с тишиной в начале и конце : Нет
При вычислениях CRC использовались нулевые сэмплы : Да
Интерфейс : Встроенный Win32-интерфейс для Win NT/2000

Выходной формат : Пользовательский кодировщик
Выбранный битрейт : 1024 kBit/s
Качество : Высокий
Добавление ID3-тега : Нет
Утилита сжатия : C:\Program Files (x86)\Exact Audio Copy\Flac\flac.exe
Дополнительные параметры : -V -8 -T "Date=%year%" -T "Genre=%genre%" %source%

TOC извлечённого CD

Трек | Старт | Длительность | Начальный сектор | Конечный сектор
---------------------------------------------------------------------
1 | 0:00.00 | 2:16.06 | 0 | 10205
2 | 2:16.06 | 1:31.33 | 10206 | 17063
3 | 3:47.39 | 3:27.04 | 17064 | 32592
4 | 7:14.43 | 3:10.21 | 32593 | 46863
5 | 10:24.64 | 1:48.26 | 46864 | 54989
6 | 12:13.15 | 2:18.17 | 54990 | 65356
7 | 14:31.32 | 4:27.71 | 65357 | 85452
8 | 18:59.28 | 5:11.13 | 85453 | 108790
9 | 24:10.41 | 2:43.42 | 108791 | 121057
10 | 26:54.08 | 3:11.15 | 121058 | 135397
11 | 30:05.23 | 4:23.36 | 135398 | 155158
12 | 34:28.59 | 2:56.15 | 155159 | 168373

Характеристики диапазона извлечения и сообщения об ошибках

Выбранный диапазон

Имя файла I:\5. EAC\Ищите Бога - Праздничный хор Свято-Елисаветинского монастыря - 2016.wav

Пиковый уровень 99.8 %
Скорость извлечения 1.7 X
Качество диапазона 99.9 %
CRC теста D40AA07D
CRC копии D40AA07D
Копирование... OK

Ошибок не произошло

AccurateRip: сводка

Трек 1 отсутствует в базе данных
Трек 2 отсутствует в базе данных
Трек 3 отсутствует в базе данных
Трек 4 отсутствует в базе данных
Трек 5 отсутствует в базе данных
Трек 6 отсутствует в базе данных
Трек 7 отсутствует в базе данных
Трек 8 отсутствует в базе данных
Трек 9 отсутствует в базе данных
Трек 10 отсутствует в базе данных
Трек 11 отсутствует в базе данных
Трек 12 отсутствует в базе данных

Ни одного трека нет в базе AccurateRip

Конец отчёта

==== Контрольная сумма отчёта 988319245536166BD945EBAF636C3B411B6F5F1EDFC2DC84AE535A5C76BF7835 ====
Содержание индексной карты (.CUE)
REM GENRE "Православные песнопения"
REM DATE 2016
REM DISCID 9108C40C
REM COMMENT "ExactAudioCopy v1.5"
PERFORMER "Праздничный хор Свято-Елисаветинского монастыря, регент монахиня Иулиания (Денисова)"
TITLE "Ищите Бога (Песни паломника)"
REM COMPOSER ""
FILE "Ищите Бога - Праздничный хор Свято-Елисаветинского монастыря - 2016.flac" WAVE
TRACK 01 AUDIO
TITLE "Ищите Бога (Seek the Lord)"
PERFORMER "Праздничный хор Свято-Елисаветинского монастыря, регент монахиня Иулиания (Денисова)"
REM COMPOSER ""
INDEX 01 00:00:00
TRACK 02 AUDIO
TITLE "Так дано много (So Much Is Given)"
PERFORMER "Праздничный хор Свято-Елисаветинского монастыря, регент монахиня Иулиания (Денисова)"
REM COMPOSER ""
INDEX 01 02:16:06
TRACK 03 AUDIO
TITLE "Как по Божией горе (Holy Land)"
PERFORMER "Праздничный хор Свято-Елисаветинского монастыря, регент монахиня Иулиания (Денисова)"
REM COMPOSER ""
INDEX 01 03:47:39
TRACK 04 AUDIO
TITLE "Душа человеча (Human Soul)"
PERFORMER "Праздничный хор Свято-Елисаветинского монастыря, регент монахиня Иулиания (Денисова)"
REM COMPOSER ""
INDEX 01 07:14:43
TRACK 05 AUDIO
TITLE "Французская Рождественская песня (A French Carol)"
PERFORMER "Праздничный хор Свято-Елисаветинского монастыря, регент монахиня Иулиания (Денисова)"
REM COMPOSER ""
INDEX 01 10:24:64
TRACK 06 AUDIO
TITLE "Божьей помощью живу (By God's Help I Live)"
PERFORMER "Праздничный хор Свято-Елисаветинского монастыря, регент монахиня Иулиания (Денисова)"
REM COMPOSER ""
INDEX 01 12:13:15
TRACK 07 AUDIO
TITLE "Причитание (Lament)"
PERFORMER "Праздничный хор Свято-Елисаветинского монастыря, регент монахиня Иулиания (Денисова)"
REM COMPOSER ""
INDEX 01 14:31:32
TRACK 08 AUDIO
TITLE "Русь называют святою (They Call Russia Holy)"
PERFORMER "Праздничный хор Свято-Елисаветинского монастыря, регент монахиня Иулиания (Денисова)"
REM COMPOSER ""
INDEX 01 18:59:28
TRACK 09 AUDIO
TITLE "Сохрани, Господь (Preserve Them, Oh Lord)"
PERFORMER "Праздничный хор Свято-Елисаветинского монастыря, регент монахиня Иулиания (Денисова)"
REM COMPOSER ""
INDEX 01 24:10:41
TRACK 10 AUDIO
TITLE "Господи, Боже мой, благослови народ Твой (Oh Lord My God, Bless Thy People)"
PERFORMER "Праздничный хор Свято-Елисаветинского монастыря, регент монахиня Иулиания (Денисова)"
REM COMPOSER ""
INDEX 01 26:54:08
TRACK 11 AUDIO
TITLE "Ой, Сербия, Божий доме (Oh Serbia, the House of God)"
PERFORMER "Праздничный хор Свято-Елисаветинского монастыря, регент монахиня Иулиания (Денисова)"
REM COMPOSER ""
INDEX 01 30:05:23
TRACK 12 AUDIO
TITLE "Наша вера (Our Faith)"
PERFORMER "Праздничный хор Свято-Елисаветинского монастыря, регент монахиня Иулиания (Денисова)"
REM COMPOSER ""
INDEX 01 34:28:59
Логи проверки качества
Лог fooCDtect
fooCDtect - foobar2000 + auCDtect, baralgin.

auCDtect: CD records authenticity detector, version 0.8.2
Copyright (c) 2004 Oleg Berngardt. All rights reserved.
Copyright (c) 2004 Alexander Djourik. All rights reserved.

mode: 0

===========================================
Track: Ищите Бога - Праздничный хор Свято-Елисаветинского монастыря - 2016

Processing file: [Ищите Бога - Праздничный хор Свято-Елисаветинского монастыря - 2016.aucdtect]
Detected average hi-boundary frequency: 2.020992e+004 Hz
Detected average lo-boundary frequency: 1.274302e+004 Hz
Detected average hi-cut frequency: 2.122009e+004 Hz
Detected average lo-cut frequency: 7.791658e+003 Hz
Maximum probablis boundary frequency: 2.189100e+004 Hz
Coefficient of nonlinearity of a phase: 1.768136e-001
First order smothness: 3.580947e-001
Second order smothness: 6.706671e-001

------------------------------------------------------------
This track looks like CDDA with probability 100%

===========================================
Лог Dynamic Range Meter
foobar2000 1.5.5 / Dynamic Range Meter 1.1.1
log date: 2020-11-11 18:33:15

--------------------------------------------------------------------------------
Statistics for: ?-Ищите Бога - Праздничный хор Свято-Елисаветинского монастыря - 2016
Number of samples: 99003912
Duration: 37:25
--------------------------------------------------------------------------------

Left Right

Peak Value: -0.01 dB --- -0.01 dB
Avg RMS: -15.67 dB --- -15.59 dB
DR channel: 11.28 dB --- 11.05 dB
--------------------------------------------------------------------------------

Official DR Value: DR11

Samplerate: 44100 Hz
Channels: 2
Bits per sample: 16
Bitrate: 686 kbps
Codec: FLAC
================================================================================
fooCDtect pic
Tracks Tau Analyzer pic
DR Meter pic
Скриншоты спектра частот
Spectrogram auCDtect TM pic
Spectrum Tau Analyzer pic
Frequency Tau Analyzer pic
Об альбоме
Новый альбом Праздничного хора из серии «Песни паломника» продолжает тему диска «Всего-то навсего». Это размышления о душе, об отношениях Бога и человека, о покаянии, святости и вере, выраженные в духовных песнях и стихах.
pic


Download

Войдите на сайт, чтобы увидеть полную информацию.

Как скачивать  ·   Правила трекера


_________________
«…В жизни у меня только одна задача – храм этот оберегать и богатства его приумножать. Каждый кирпичик этого храма, каждая вечная книга, каждая вечная мелодия несут в себе спрессованный опыт человечества, мысли его и мысли о нём…» (~Стругацкие)
[Профиль]  [ЛС] 
Показать сообщения:    
Ответить на тему

Текущее время: 19-Янв 09:14

Часовой пояс: GMT + 4



Вы не можете начинать темы
Вы не можете отвечать на сообщения
Вы не можете редактировать свои сообщения
Вы не можете удалять свои сообщения
Вы не можете голосовать в опросах
Вы не можете прикреплять файлы к сообщениям
Вы не можете скачивать файлы