Loading...
Error

(Православные песнопения) Благодарение - Сестры Свято-Елисаветинского монастыря - 2008, FLAC (image + .cue), lossless

Ответить на тему
Статистика раздачи
   
 
Автор Сообщение

Petrorin

Стаж: 5 месяцев

Сообщений: 30

post 06-Дек-2020 17:43

[Цитировать] 

Сестры Свято-Елисаветинского монастыря / Благодарение

pic
Жанр: православные песнопения
Носитель: CD
Страна: Белоруссия
Год издания: 2008
Формат: FLAC (image + .cue)
Битрейт аудио: lossless
Продолжительность: 00:59:43
Источник: собственный рип
Наличие сканов: да
Треклист:
01. Великая ектения. — Византийский распев (Great Litany. — Byzantine chant)
02. Антифон 1-й, глас 5. — Подобен "Радуйся" (Antiphon 1, tone 5)
03. Антифон 2-й (Antiphon 2)
04. Единородный Сыне. — Расшифровка Н. Успенского (The Only Begotten Son. — Transcription by N. Uspensky)
05. Во Царствии Твоем (In Thy Kingdom Remember Us, O Lord)
06. Приидите, поклонимся. — Болгарское (Come, Let Us Worship. — Bulgarian chant)
07. Тропари и кондаки: воскресные, глас 3, иконе Божией Матери "Державная", гласы 4 и 8 (Troparia and Kontakia: Sunday, tone 3, to the "Reigning" icon of Theotokos, tones 4 and 8 )
08. Трисвятое. — Строчное (Trisagion)
09. Прокимен, глас 3 (Prokeimenon, tone 3)
10. Аллилуия. — Болгарское (Halleluiah. — Bulgarian chant)
11. Заупокойная ектения (Litany for the Deceased)
12. Херувимская песнь (Cherubic Song)
13. Просительная ектения (The Petitions)
14. Милость мира (The Mercy of Peace)
15. Достойно есть (It Is Truly Meet)
16. Един Свят (One Is Holy)
17. Видехом Свет Истинный (We Have Seen the Light of Truth)
18. Да исполнятся уста наша (May Our Mouths Be Filled with Thy Praise)
19. Великаго Господина (Our Great Lord and Father)
20. Антифоны 1-й и 2-й, глас 1. — Обиход (Antiphons 1 and 2, tone 1. — Common chant)
21. Херувимская песнь. — "Старо-Симоновская" (Cherubical Song. — "Staro-Simonovsky" chant)
22. Милость мира. — Знаменный распев (A Mercy of Peace. — Znamenny chant)
Лог создания рипа
Exact Audio Copy V1.5 from 20. February 2020

Отчёт EAC об извлечении, выполненном 24. октября 2020, 16:33

Сестры Свято-Елисаветинского монастыря / Благодарение

Дисковод: HL-DT-STDVDRAM GH22NS40 Adapter: 1 ID: 0

Режим чтения : Достоверность
Использование точного потока : Да
Отключение кэша аудио : Да
Использование указателей C2 : Нет

Коррекция смещения при чтении : 667
Способность читать области Lead-in и Lead-out : Нет
Заполнение пропущенных сэмплов тишиной : Да
Удаление блоков с тишиной в начале и конце : Нет
При вычислениях CRC использовались нулевые сэмплы : Да
Интерфейс : Встроенный Win32-интерфейс для Win NT/2000

Выходной формат : Пользовательский кодировщик
Выбранный битрейт : 1024 kBit/s
Качество : Высокий
Добавление ID3-тега : Нет
Утилита сжатия : C:\Program Files (x86)\Exact Audio Copy\Flac\flac.exe
Дополнительные параметры : -V -8 -T "Date=%year%" -T "Genre=%genre%" %source%

TOC извлечённого CD

Трек | Старт | Длительность | Начальный сектор | Конечный сектор
---------------------------------------------------------------------
1 | 0:00.00 | 3:46.61 | 0 | 17010
2 | 3:46.61 | 2:57.15 | 17011 | 30300
3 | 6:44.01 | 1:17.56 | 30301 | 36131
4 | 8:01.57 | 1:26.14 | 36132 | 42595
5 | 9:27.71 | 2:32.58 | 42596 | 54053
6 | 12:00.54 | 0:43.27 | 54054 | 57305
7 | 12:44.06 | 2:29.43 | 57306 | 68523
8 | 15:13.49 | 2:24.54 | 68524 | 79377
9 | 17:38.28 | 1:13.40 | 79378 | 84892
10 | 18:51.68 | 0:47.23 | 84893 | 88440
11 | 19:39.16 | 1:49.12 | 88441 | 96627
12 | 21:28.28 | 5:11.63 | 96628 | 120015
13 | 26:40.16 | 3:11.44 | 120016 | 134384
14 | 29:51.60 | 5:29.62 | 134385 | 159121
15 | 35:21.47 | 0:59.24 | 159122 | 163570
16 | 36:20.71 | 0:44.18 | 163571 | 166888
17 | 37:05.14 | 0:36.07 | 166889 | 169595
18 | 37:41.21 | 0:42.16 | 169596 | 172761
19 | 38:23.37 | 0:45.48 | 172762 | 176184
20 | 39:09.10 | 4:10.18 | 176185 | 194952
21 | 43:19.28 | 8:53.03 | 194953 | 234930
22 | 52:12.31 | 7:31.08 | 234931 | 268763

Характеристики диапазона извлечения и сообщения об ошибках

Выбранный диапазон

Имя файла I:\5. EAC\Благодарение - Сестры Свято-Елисаветинского монастыря - 2008.wav

Пиковый уровень 98.8 %
Скорость извлечения 1.9 X
Качество диапазона 100.0 %
CRC теста 8F784C4C
CRC копии 8F784C4C
Копирование... OK

Ошибок не произошло

AccurateRip: сводка

Трек 1 : извлечено точно (достоверность 1) [5F3EA1AD] (AR v2)
Трек 2 : извлечено точно (достоверность 1) [ABE698C8] (AR v2)
Трек 3 : извлечено точно (достоверность 1) [75776466] (AR v2)
Трек 4 : извлечено точно (достоверность 1) [5F119EAC] (AR v2)
Трек 5 : извлечено точно (достоверность 1) [D1278A3A] (AR v2)
Трек 6 : извлечено точно (достоверность 1) [E715212B] (AR v2)
Трек 7 : извлечено точно (достоверность 1) [1D227DAE] (AR v2)
Трек 8 : извлечено точно (достоверность 1) [A162A5CB] (AR v2)
Трек 9 : извлечено точно (достоверность 1) [C9AA2D9B] (AR v2)
Трек 10 : извлечено точно (достоверность 1) [0B65013D] (AR v2)
Трек 11 : извлечено точно (достоверность 1) [C129FB19] (AR v2)
Трек 12 : извлечено точно (достоверность 1) [C842CC75] (AR v2)
Трек 13 : извлечено точно (достоверность 1) [F33DD28A] (AR v2)
Трек 14 : извлечено точно (достоверность 1) [76FC440E] (AR v2)
Трек 15 : извлечено точно (достоверность 1) [A63C2A4E] (AR v2)
Трек 16 : извлечено точно (достоверность 1) [4BB2C3B8] (AR v2)
Трек 17 : извлечено точно (достоверность 1) [A41901C9] (AR v2)
Трек 18 : извлечено точно (достоверность 1) [CDEC965B] (AR v2)
Трек 19 : извлечено точно (достоверность 1) [E54B7B42] (AR v2)
Трек 20 : извлечено точно (достоверность 1) [D0B28990] (AR v2)
Трек 21 : извлечено точно (достоверность 1) [B04B7E31] (AR v2)
Трек 22 : извлечено точно (достоверность 1) [56255CB1] (AR v2)

Все треки извлечены точно

Конец отчёта

==== Контрольная сумма отчёта C9BD3B4BBDA57E5CBBB0F38BCD52FE1C35558CA96D934F0577911ADBC1A75213 ====
Лог Dynamic Range Meter
foobar2000 1.5.5 / Dynamic Range Meter 1.1.1
log date: 2020-10-25 19:07:01

--------------------------------------------------------------------------------
Statistics for: ?-Благодарение - Сестры Свято-Елисаветинского монастыря - 2008
Number of samples: 158033232
Duration: 59:44
--------------------------------------------------------------------------------

Left Right

Peak Value: -0.10 dB --- -0.34 dB
Avg RMS: -16.97 dB --- -16.78 dB
DR channel: 13.25 dB --- 12.90 dB
--------------------------------------------------------------------------------

Official DR Value: DR13

Samplerate: 44100 Hz
Channels: 2
Bits per sample: 16
Bitrate: 639 kbps
Codec: FLAC
================================================================================
Содержание индексной карты (.CUE)
REM GENRE "Православные песнопения"
REM DATE 2008
REM DISCID 040DFF16
REM COMMENT "ExactAudioCopy v1.5"
PERFORMER "Сестры Свято-Елисаветинского монастыря"
TITLE "Благодарение"
REM COMPOSER ""
FILE "Благодарение - Сестры Свято-Елисаветинского монастыря - 2008.flac" WAVE
TRACK 01 AUDIO
TITLE "Великая ектения. — Византийский распев (Great Litany. — Byzantine chant)"
PERFORMER "Сестры Свято-Елисаветинского монастыря"
REM COMPOSER ""
INDEX 01 00:00:00
TRACK 02 AUDIO
TITLE "Антифон 1-й, глас 5. — Подобен 'Радуйся' (Antiphon 1, tone 5)"
PERFORMER "Сестры Свято-Елисаветинского монастыря"
REM COMPOSER ""
INDEX 01 03:46:61
TRACK 03 AUDIO
TITLE "Антифон 2-й (Antiphon 2)"
PERFORMER "Сестры Свято-Елисаветинского монастыря"
REM COMPOSER ""
INDEX 01 06:44:01
TRACK 04 AUDIO
TITLE "Единородный Сыне. — Расшифровка Н. Успенского (The Only Begotten Son. — Transcription by N. Uspensky)"
PERFORMER "Сестры Свято-Елисаветинского монастыря"
REM COMPOSER ""
INDEX 01 08:01:57
TRACK 05 AUDIO
TITLE "Во Царствии Твоем (In Thy Kingdom Remember Us, O Lord)"
PERFORMER "Сестры Свято-Елисаветинского монастыря"
REM COMPOSER ""
INDEX 01 09:27:71
TRACK 06 AUDIO
TITLE "Приидите, поклонимся. — Болгарское (Come, Let Us Worship. — Bulgarian chant)"
PERFORMER "Сестры Свято-Елисаветинского монастыря"
REM COMPOSER ""
INDEX 01 12:00:54
TRACK 07 AUDIO
TITLE "Тропари и кондаки: воскресные, глас 3, иконе Божией Матери 'Державная', гласы 4 и 8 (Troparia and Kontakia: Sunday, tone 3, to the "Reigning" icon of Theotokos, tones 4 and Cool"
PERFORMER "Сестры Свято-Елисаветинского монастыря"
REM COMPOSER ""
INDEX 01 12:44:06
TRACK 08 AUDIO
TITLE "Трисвятое. — Строчное (Trisagion)"
PERFORMER "Сестры Свято-Елисаветинского монастыря"
REM COMPOSER ""
INDEX 01 15:13:49
TRACK 09 AUDIO
TITLE "Прокимен, глас 3 (Prokeimenon, tone 3)"
PERFORMER "Сестры Свято-Елисаветинского монастыря"
REM COMPOSER ""
INDEX 01 17:38:28
TRACK 10 AUDIO
TITLE "Аллилуия. — Болгарское (Halleluiah. — Bulgarian chant)"
PERFORMER "Сестры Свято-Елисаветинского монастыря"
REM COMPOSER ""
INDEX 01 18:51:68
TRACK 11 AUDIO
TITLE "Заупокойная ектения (Litany for the Deceased)"
PERFORMER "Сестры Свято-Елисаветинского монастыря"
REM COMPOSER ""
INDEX 01 19:39:16
TRACK 12 AUDIO
TITLE "Херувимская песнь (Cherubic Song)"
PERFORMER "Сестры Свято-Елисаветинского монастыря"
REM COMPOSER ""
INDEX 01 21:28:28
TRACK 13 AUDIO
TITLE "Просительная ектения (The Petitions)"
PERFORMER "Сестры Свято-Елисаветинского монастыря"
REM COMPOSER ""
INDEX 01 26:40:16
TRACK 14 AUDIO
TITLE "Милость мира (The Mercy of Peace)"
PERFORMER "Сестры Свято-Елисаветинского монастыря"
REM COMPOSER ""
INDEX 01 29:51:60
TRACK 15 AUDIO
TITLE "Достойно есть. — Из рукописных нот (It Is Truly Meet)"
PERFORMER "Сестры Свято-Елисаветинского монастыря"
REM COMPOSER ""
INDEX 01 35:21:47
TRACK 16 AUDIO
TITLE "Един Свят (One Is Holy)"
PERFORMER "Сестры Свято-Елисаветинского монастыря"
REM COMPOSER ""
INDEX 01 36:20:71
TRACK 17 AUDIO
TITLE "Видехом Свет Истинный (We Have Seen the Light of Truth)"
PERFORMER "Сестры Свято-Елисаветинского монастыря"
REM COMPOSER ""
INDEX 01 37:05:14
TRACK 18 AUDIO
TITLE "Да исполнятся уста наша (May Our Mouths Be Filled with Thy Praise)"
PERFORMER "Сестры Свято-Елисаветинского монастыря"
REM COMPOSER ""
INDEX 01 37:41:21
TRACK 19 AUDIO
TITLE "Великаго Господина (Our Great Lord and Father)"
PERFORMER "Сестры Свято-Елисаветинского монастыря"
REM COMPOSER ""
INDEX 01 38:23:37
TRACK 20 AUDIO
TITLE "Антифоны 1-й и 2-й, глас 1. — Обиход (Antiphons 1 and 2, tone 1. — Common chant)"
PERFORMER "Сестры Свято-Елисаветинского монастыря"
REM COMPOSER ""
INDEX 01 39:09:10
TRACK 21 AUDIO
TITLE "Херувимская песнь. — 'Старо-Симоновская' — по обиходу Красногорского монастыря (Cherubical Song. — "Staro-Simonovsky" chant, used in Krasnogorsky monastery)"
PERFORMER "Сестры Свято-Елисаветинского монастыря"
REM COMPOSER ""
INDEX 01 43:19:28
TRACK 22 AUDIO
TITLE "Милость мира. — Знаменный распев, гармонизация М. Ковалевского в изложении ин. Ирины [Денисовой] (A Mercy of Peace. — Znamenny chant, harmonized by M. Kovalevsky, version by nun Irina [Denisova])"
PERFORMER "Сестры Свято-Елисаветинского монастыря"
REM COMPOSER ""
INDEX 01 52:12:31
Скриншот спектра частот
Spectrum pic
Frequency pic
DR Meter pic
Tracks pic
Об альбоме
Запись сделана в храме в честь иконы Божией Матери "Державная" Минского Свято-Елисаветинского монастыря.
В записи принимал участие диакон Сергий Нежборт.
Звукорежиссеры: В. Николаеня, В. Киранов, К. Карманов, П. Бурый

Recorded in the church in honour of the "Reigning" icon of Theotokos in St. Elisabeth Convent, Minsk.
With participation of Deacon Sergius Nezhbort.
Sound engineers: V. Nikolaenya, V. Kiranov, K. Karmanov, P. Boury.
pic pic


Download

Войдите на сайт, чтобы увидеть полную информацию.

Как скачивать  ·   Правила трекера


_________________
«…В жизни у меня только одна задача – храм этот оберегать и богатства его приумножать. Каждый кирпичик этого храма, каждая вечная книга, каждая вечная мелодия несут в себе спрессованный опыт человечества, мысли его и мысли о нём…» (~Стругацкие)
[Профиль]  [ЛС] 
Показать сообщения:    
Ответить на тему

Текущее время: 20-Апр 01:40

Часовой пояс: GMT + 4



Вы не можете начинать темы
Вы не можете отвечать на сообщения
Вы не можете редактировать свои сообщения
Вы не можете удалять свои сообщения
Вы не можете голосовать в опросах
Вы не можете прикреплять файлы к сообщениям
Вы не можете скачивать файлы