Loading...
Error

(Православные песнопения) Всенощное бдение - Сестры Свято-Елисаветинского монастыря - 2006, FLAC (image + .cue), lossless

Ответить на тему
Статистика раздачи
   
 
Автор Сообщение

Petrorin

Стаж: 1 месяц 26 дней

Сообщений: 28

post 06-Дек-2020 17:32

[Цитировать] 

Сестры Свято-Елисаветинского монастыря / Всенощное бдение

pic
Жанр: православные песнопения
Носитель: CD
Страна: Белоруссия
Год издания: 2006
Формат: FLAC (image + .cue)
Битрейт аудио: lossless
Продолжительность: 00:42:53
Источник: собственный рип
Наличие сканов: да
Треклист:
01. Предначинательный псалом. — Греческий распев (Proemial Psalm. — Greek Chant)
02. Блажен муж. — Валаамский распев (Blessed is the Man. — Valaam Chant)
03. Свете тихий. — Валаамский распев (O Gladsome Light. — Valaam Chant)
04. Ныне отпущаеши. — Киевский распев (Lord, Now Lettest Thou Thy Servant Depart. — Kievan Chant)
05. Богородице Дево, радуйся. — Кремлевский распев (O Virgin Theotokos. — Kremlin Chant)
06. Ектения на литии. — Греческий распев (Litany at the Litiya. — Greek Chant)
07. Бог Господь. — Глас 1. Обиход (God is the Lord, Tone 1. — Common Chant)
08. Хвалите Имя Господне. — Валаамский распев (Praise Ye the Name of the Lord. — Valaam Chant)
09. Величание св. прмц. Елисавете. — Соловецкий распев (Magnification to the New Martyr Grand Duchess Elizabeth. — Solovetsky Chant)
10. [Ангельский собор. — Знаменный распев (The Angelic Council. — Znamenny Chant)
11. От юности моея. — Византийский распев (From My Youth. — Byzantine Chant)
12. По 50-м псалме стихира. — Глас 6. Обиход (Sticheron after Psalm 50, Tone 6. — Common Chant)
13. Канон Воздвижению Креста Господня. Ирмосы 8-го гласа: Ирмос 1 (Canon from the Service of the Exaltation of the Cross — Irmos 1, Tone 8 )
14. Ирмос 3 (Canon from the Service of the Exaltation of the Cross — Irmos 3, Tone 8 )
15. Ирмос 5 (Canon from the Service of the Exaltation of the Cross — Irmos 5, Tone 8 )
16. Ирмос 7 (Canon from the Service of the Exaltation of the Cross — Irmos 7, Tone 8 )
17. Великое славословие. — Византийский распев (Great Doxology. — Byzantine Chant)
18. Взбранной Воеводе. — Болгарский распев (To Thee, the Champion Leader. — Bulgarian Chant)
19. Многолетие (Velikago Gospodina)
20. Иисусова молитва (The Jesus Prayer)
Лог создания рипа
Exact Audio Copy V1.5 from 20. February 2020

Отчёт EAC об извлечении, выполненном 24. октября 2020, 13:44

Сестры Свято-Елисаветинского монастыря / Всенощное бдение

Дисковод: HL-DT-STDVDRAM GH22NS40 Adapter: 1 ID: 0

Режим чтения : Достоверность
Использование точного потока : Да
Отключение кэша аудио : Да
Использование указателей C2 : Нет

Коррекция смещения при чтении : 667
Способность читать области Lead-in и Lead-out : Нет
Заполнение пропущенных сэмплов тишиной : Да
Удаление блоков с тишиной в начале и конце : Нет
При вычислениях CRC использовались нулевые сэмплы : Да
Интерфейс : Встроенный Win32-интерфейс для Win NT/2000

Выходной формат : Пользовательский кодировщик
Выбранный битрейт : 1024 kBit/s
Качество : Высокий
Добавление ID3-тега : Нет
Утилита сжатия : C:\Program Files (x86)\Exact Audio Copy\Flac\flac.exe
Дополнительные параметры : -V -8 -T "Date=%year%" -T "Genre=%genre%" %source%

TOC извлечённого CD

Трек | Старт | Длительность | Начальный сектор | Конечный сектор
---------------------------------------------------------------------
1 | 0:00.00 | 4:42.73 | 0 | 21222
2 | 4:42.73 | 5:10.53 | 21223 | 44525
3 | 9:53.51 | 1:59.50 | 44526 | 53500
4 | 11:53.26 | 1:12.57 | 53501 | 58957
5 | 13:06.08 | 0:50.32 | 58958 | 62739
6 | 13:56.40 | 1:18.14 | 62740 | 68603
7 | 15:14.54 | 1:38.39 | 68604 | 75992
8 | 16:53.18 | 5:38.03 | 75993 | 101345
9 | 22:31.21 | 0:50.54 | 101346 | 105149
10 | 23:22.00 | 3:31.38 | 105150 | 121012
11 | 26:53.38 | 2:00.72 | 121013 | 130084
12 | 28:54.35 | 2:09.40 | 130085 | 139799
13 | 31:04.00 | 0:50.63 | 139800 | 143612
14 | 31:54.63 | 0:33.42 | 143613 | 146129
15 | 32:28.30 | 0:48.30 | 146130 | 149759
16 | 33:16.60 | 0:44.31 | 149760 | 153090
17 | 34:01.16 | 4:26.05 | 153091 | 173045
18 | 38:27.21 | 0:58.44 | 173046 | 177439
19 | 39:25.65 | 0:50.11 | 177440 | 181200
20 | 40:16.01 | 2:37.41 | 181201 | 193016

Характеристики диапазона извлечения и сообщения об ошибках

Выбранный диапазон

Имя файла I:\5. EAC\Всенощное бдение - Сестры Свято-Елисаветинского монастыря - 2006.wav

Пиковый уровень 98.5 %
Скорость извлечения 1.7 X
Качество диапазона 100.0 %
CRC теста 353509F4
CRC копии 353509F4
Копирование... OK

Ошибок не произошло

AccurateRip: сводка

Трек 1 : извлечено точно (достоверность 1) [4D8EBB73] (AR v2)
Трек 2 : извлечено точно (достоверность 1) [29874DB2] (AR v2)
Трек 3 : извлечено точно (достоверность 1) [E3F50482] (AR v2)
Трек 4 : извлечено точно (достоверность 1) [29C9B0D7] (AR v2)
Трек 5 : извлечено точно (достоверность 1) [66CFD301] (AR v2)
Трек 6 : извлечено точно (достоверность 1) [4C9EB8AC] (AR v2)
Трек 7 : извлечено точно (достоверность 1) [7077B81D] (AR v2)
Трек 8 : извлечено точно (достоверность 1) [D76462A3] (AR v2)
Трек 9 : извлечено точно (достоверность 1) [B74FE49E] (AR v2)
Трек 10 : извлечено точно (достоверность 1) [10687B51] (AR v2)
Трек 11 : извлечено точно (достоверность 1) [9D9C68EC] (AR v2)
Трек 12 : извлечено точно (достоверность 1) [A77234D4] (AR v2)
Трек 13 : извлечено точно (достоверность 1) [92CC6430] (AR v2)
Трек 14 : извлечено точно (достоверность 1) [9B495A0F] (AR v2)
Трек 15 : извлечено точно (достоверность 1) [E9EFCC48] (AR v2)
Трек 16 : извлечено точно (достоверность 1) [6D076334] (AR v2)
Трек 17 : извлечено точно (достоверность 1) [0203510A] (AR v2)
Трек 18 : извлечено точно (достоверность 1) [FD4B97C6] (AR v2)
Трек 19 : извлечено точно (достоверность 1) [3DA5EBCD] (AR v2)
Трек 20 : извлечено точно (достоверность 1) [3613795F] (AR v2)

Все треки извлечены точно

Конец отчёта

==== Контрольная сумма отчёта AEDE08A4BB79DC6AD5FC6C8BA4D1E44D1C36933085F46E8C14BBA9C9291F77A3 ====
Лог Dynamic Range Meter
foobar2000 1.5.5 / Dynamic Range Meter 1.1.1
log date: 2020-10-25 14:12:51

--------------------------------------------------------------------------------
Statistics for: ?-Всенощное бдение - Сестры Свято-Елисаветинского монастыря - 2006
Number of samples: 113493996
Duration: 42:54
--------------------------------------------------------------------------------

Left Right

Peak Value: -0.13 dB --- -0.20 dB
Avg RMS: -14.36 dB --- -14.80 dB
DR channel: 11.95 dB --- 12.06 dB
--------------------------------------------------------------------------------

Official DR Value: DR12

Samplerate: 44100 Hz
Channels: 2
Bits per sample: 16
Bitrate: 734 kbps
Codec: FLAC
================================================================================
Содержание индексной карты (.CUE)
REM GENRE "Православные песнопения"
REM DATE 2006
REM DISCID 2D0A0D14
REM COMMENT "ExactAudioCopy v1.5"
PERFORMER "Сестры Свято-Елисаветинского монастыря"
TITLE "Всенощное бдение"
REM COMPOSER ""
FILE "Всенощное бдение - Сестры Свято-Елисаветинского монастыря - 2006.flac" WAVE
TRACK 01 AUDIO
TITLE "Предначинательный псалом. — Греческий распев (Proemial Psalm. — Greek Chant)"
PERFORMER "Сестры Свято-Елисаветинского монастыря"
REM COMPOSER ""
INDEX 01 00:00:00
TRACK 02 AUDIO
TITLE "Блажен муж. — Валаамский распев (Blessed is the Man. — Valaam Chant)"
PERFORMER "Сестры Свято-Елисаветинского монастыря"
REM COMPOSER ""
INDEX 01 04:42:73
TRACK 03 AUDIO
TITLE "Свете тихий. — Валаамский распев (O Gladsome Light. — Valaam Chant)"
PERFORMER "Сестры Свято-Елисаветинского монастыря"
REM COMPOSER ""
INDEX 01 09:53:51
TRACK 04 AUDIO
TITLE "Ныне отпущаеши. — Киевский распев (Lord, Now Lettest Thou Thy Servant Depart. — Kievan Chant)"
PERFORMER "Сестры Свято-Елисаветинского монастыря"
REM COMPOSER ""
INDEX 01 11:53:26
TRACK 05 AUDIO
TITLE "Богородице Дево, радуйся. — Кремлевский распев (O Virgin Theotokos. — Kremlin Chant)"
PERFORMER "Сестры Свято-Елисаветинского монастыря"
REM COMPOSER ""
INDEX 01 13:06:08
TRACK 06 AUDIO
TITLE "Ектения на литии. — Греческий распев (Litany at the Litiya. — Greek Chant)"
PERFORMER "Сестры Свято-Елисаветинского монастыря"
REM COMPOSER ""
INDEX 01 13:56:40
TRACK 07 AUDIO
TITLE "Бог Господь. — Глас 1. Обиход (God is the Lord, Tone 1. — Common Chant)"
PERFORMER "Сестры Свято-Елисаветинского монастыря"
REM COMPOSER ""
INDEX 01 15:14:54
TRACK 08 AUDIO
TITLE "Хвалите Имя Господне. — Валаамский распев (Praise Ye the Name of the Lord. — Valaam Chant)"
PERFORMER "Сестры Свято-Елисаветинского монастыря"
REM COMPOSER ""
INDEX 01 16:53:18
TRACK 09 AUDIO
TITLE "Величание св. прмц. Елисавете. — Соловецкий распев (Magnification to the New Martyr Grand Duchess Elizabeth. — Solovetsky Chant)"
PERFORMER "Сестры Свято-Елисаветинского монастыря"
REM COMPOSER ""
INDEX 01 22:31:21
TRACK 10 AUDIO
TITLE "Ангельский собор. — Знаменный распев (The Angelic Council. — Znamenny Chant)"
PERFORMER "Сестры Свято-Елисаветинского монастыря"
REM COMPOSER ""
INDEX 01 23:22:00
TRACK 11 AUDIO
TITLE "От юности моея. — Византийский распев (From My Youth. — Byzantine Chant)"
PERFORMER "Сестры Свято-Елисаветинского монастыря"
REM COMPOSER ""
INDEX 01 26:53:38
TRACK 12 AUDIO
TITLE "По 50-м псалме стихира. — Глас 6. Обиход (Sticheron after Psalm 50, Tone 6. — Common Chant)"
PERFORMER "Сестры Свято-Елисаветинского монастыря"
REM COMPOSER ""
INDEX 01 28:54:35
TRACK 13 AUDIO
TITLE "Канон Воздвижению Креста Господня. Ирмосы 8-го гласа: Ирмос 1 (Canon from the Service of the Exaltation of the Cross — Irmos 1, Tone Cool"
PERFORMER "Сестры Свято-Елисаветинского монастыря"
REM COMPOSER ""
INDEX 01 31:04:00
TRACK 14 AUDIO
TITLE "Ирмос 3 (Canon from the Service of the Exaltation of the Cross — Irmos 3, Tone Cool"
PERFORMER "Сестры Свято-Елисаветинского монастыря"
REM COMPOSER ""
INDEX 01 31:54:63
TRACK 15 AUDIO
TITLE "Ирмос 5 (Canon from the Service of the Exaltation of the Cross — Irmos 5, Tone Cool"
PERFORMER "Сестры Свято-Елисаветинского монастыря"
REM COMPOSER ""
INDEX 01 32:28:30
TRACK 16 AUDIO
TITLE "Ирмос 7 (Canon from the Service of the Exaltation of the Cross — Irmos 7, Tone Cool"
PERFORMER "Сестры Свято-Елисаветинского монастыря"
REM COMPOSER ""
INDEX 01 33:16:60
TRACK 17 AUDIO
TITLE "Великое славословие. — Византийский распев (Great Doxology. — Byzantine Chant)"
PERFORMER "Сестры Свято-Елисаветинского монастыря"
REM COMPOSER ""
INDEX 01 34:01:16
TRACK 18 AUDIO
TITLE "Взбранной Воеводе. — Болгарский распев (To Thee, the Champion Leader. — Bulgarian Chant)"
PERFORMER "Сестры Свято-Елисаветинского монастыря"
REM COMPOSER ""
INDEX 01 38:27:21
TRACK 19 AUDIO
TITLE "Многолетие (Velikago Gospodina)"
PERFORMER "Сестры Свято-Елисаветинского монастыря"
REM COMPOSER ""
INDEX 01 39:25:65
TRACK 20 AUDIO
TITLE "Иисусова молитва (The Jesus Prayer)"
PERFORMER "Сестры Свято-Елисаветинского монастыря"
REM COMPOSER ""
INDEX 01 40:16:01
Скриншот спектра частот
Spectrum pic
Frequency pic
DR Meter pic
Tracks pic
pic pic


Download

Войдите на сайт, чтобы увидеть полную информацию.

Как скачивать  ·   Правила трекера


_________________
«…В жизни у меня только одна задача – храм этот оберегать и богатства его приумножать. Каждый кирпичик этого храма, каждая вечная книга, каждая вечная мелодия несут в себе спрессованный опыт человечества, мысли его и мысли о нём…» (~Стругацкие)
[Профиль]  [ЛС] 
Показать сообщения:    
Ответить на тему

Текущее время: 15-Янв 22:17

Часовой пояс: GMT + 4



Вы не можете начинать темы
Вы не можете отвечать на сообщения
Вы не можете редактировать свои сообщения
Вы не можете удалять свои сообщения
Вы не можете голосовать в опросах
Вы не можете прикреплять файлы к сообщениям
Вы не можете скачивать файлы