Loading...
Error

(Православные песнопения) Наша вера - Ансамбль сестер Свято-Елисаветинского монастыря. Регент мон. Иулиания (Денисова) - 2018, FLAC (image + .cue), lossless

Ответить на тему
Статистика раздачи
   
 
Автор Сообщение

Petrorin

Стаж: 2 месяца 9 дней

Сообщений: 30

post 06-Дек-2020 16:55

[Цитировать] 

Ансамбль сестер Свято-Елисаветинского монастыря. Регент мон. Иулиания (Денисова) / Наша вера

pic
Жанр: православные песнопения
Носитель: CD
Страна: Белоруссия
Год издания: 2018
Формат: FLAC (image + .cue)
Битрейт аудио: lossless
Продолжительность: 00:54:06
Источник: собственный рип
Наличие сканов: да
Треклист:
01. Отверзу уста моя (I Shall Open My Mouth)
02. О, Всепетая Мати (O All-Praised Mother)
03. Песнь Богородицы (Song of the Theotokos)
04. Достойно есть (It Is Truly Meet)
05. Ирмосы канона "Яко по суху" (When Israel Walked. — Irmoses of the Canon of Repentance)
06. Оком благоутробным, Господи (O Lord Look upon Me with Eyes of Mercy)
07. Наша вера (Our Faith)
08. Даруй, Боже, благодать (Give Grace O God)
09. Был у Христа-Младенца сад (When Jesus Christ Was Yet a Child)
10. Французская Рождественская песня (French Christmas Carol)
11. Купалинка (Kupalinka)
12. Вьюн над водой (Haze over Water)
13. Батюшка наш Серафим (Our Father Seraphim)
14. Матушка, Великая княгиня (O Matushka the Grand Princess)
15. С чего начинается Родина (What Does the Motherland Begin with?)
16. Сохрани Господь (Save O Lord)
17. Всего-то навсего (You Simply Have to Love)
18. На многая лета (Many Years)
Лог создания рипа
Exact Audio Copy V1.5 from 20. February 2020

Отчёт EAC об извлечении, выполненном 24. октября 2020, 11:38

Ансамбль сестер Свято-Елисаветинского монастыря, регент монахиня Иулиания (Денисова) / Наша вера

Дисковод: HL-DT-STDVDRAM GH22NS40 Adapter: 1 ID: 0

Режим чтения : Достоверность
Использование точного потока : Да
Отключение кэша аудио : Да
Использование указателей C2 : Нет

Коррекция смещения при чтении : 667
Способность читать области Lead-in и Lead-out : Нет
Заполнение пропущенных сэмплов тишиной : Да
Удаление блоков с тишиной в начале и конце : Нет
При вычислениях CRC использовались нулевые сэмплы : Да
Интерфейс : Встроенный Win32-интерфейс для Win NT/2000

Выходной формат : Пользовательский кодировщик
Выбранный битрейт : 1024 kBit/s
Качество : Высокий
Добавление ID3-тега : Нет
Утилита сжатия : C:\Program Files (x86)\Exact Audio Copy\Flac\flac.exe
Дополнительные параметры : -V -8 -T "Date=%year%" -T "Genre=%genre%" %source%

TOC извлечённого CD

Трек | Старт | Длительность | Начальный сектор | Конечный сектор
---------------------------------------------------------------------
1 | 0:00.00 | 1:46.42 | 0 | 7991
2 | 1:46.42 | 3:06.06 | 7992 | 21947
3 | 4:52.48 | 3:43.19 | 21948 | 38691
4 | 8:35.67 | 1:31.64 | 38692 | 45580
5 | 10:07.56 | 3:38.35 | 45581 | 61965
6 | 13:46.16 | 2:50.28 | 61966 | 74743
7 | 16:36.44 | 2:48.32 | 74744 | 87375
8 | 19:25.01 | 2:30.66 | 87376 | 98691
9 | 21:55.67 | 2:34.19 | 98692 | 110260
10 | 24:30.11 | 1:39.01 | 110261 | 117686
11 | 26:09.12 | 3:15.37 | 117687 | 132348
12 | 29:24.49 | 4:48.25 | 132349 | 153973
13 | 34:12.74 | 3:32.39 | 153974 | 169912
14 | 37:45.38 | 6:08.01 | 169913 | 197513
15 | 43:53.39 | 2:09.51 | 197514 | 207239
16 | 46:03.15 | 2:48.21 | 207240 | 219860
17 | 48:51.36 | 3:56.37 | 219861 | 237597
18 | 52:47.73 | 1:18.72 | 237598 | 243519

Характеристики диапазона извлечения и сообщения об ошибках

Выбранный диапазон

Имя файла I:\5. EAC\Наша вера - Ансамбль сестер Свято-Елисаветинского монастыря - 2018.wav

Пиковый уровень 98.8 %
Скорость извлечения 1.9 X
Качество диапазона 100.0 %
CRC теста 8AC33348
CRC копии 8AC33348
Копирование... OK

Ошибок не произошло

AccurateRip: сводка

Трек 1 отсутствует в базе данных
Трек 2 отсутствует в базе данных
Трек 3 отсутствует в базе данных
Трек 4 отсутствует в базе данных
Трек 5 отсутствует в базе данных
Трек 6 отсутствует в базе данных
Трек 7 отсутствует в базе данных
Трек 8 отсутствует в базе данных
Трек 9 отсутствует в базе данных
Трек 10 отсутствует в базе данных
Трек 11 отсутствует в базе данных
Трек 12 отсутствует в базе данных
Трек 13 отсутствует в базе данных
Трек 14 отсутствует в базе данных
Трек 15 отсутствует в базе данных
Трек 16 отсутствует в базе данных
Трек 17 отсутствует в базе данных
Трек 18 отсутствует в базе данных

Ни одного трека нет в базе AccurateRip

Конец отчёта

==== Контрольная сумма отчёта 4AF5905AE07C60EEE3B0E12F570B0DCEBC0C1B0A5FB5C5E8AC776A467C94952C ====
Лог Dynamic Range Meter
foobar2000 1.5.5 / Dynamic Range Meter 1.1.1
log date: 2020-10-25 17:55:42

--------------------------------------------------------------------------------
Statistics for: ?-Наша вера - Ансамбль сестер Свято-Елисаветинского монастыря - 2018
Number of samples: 143189760
Duration: 54:07
--------------------------------------------------------------------------------

Left Right

Peak Value: -0.10 dB --- -0.10 dB
Avg RMS: -15.57 dB --- -14.65 dB
DR channel: 11.99 dB --- 11.04 dB
--------------------------------------------------------------------------------

Official DR Value: DR12

Samplerate: 44100 Hz
Channels: 2
Bits per sample: 16
Bitrate: 727 kbps
Codec: FLAC
================================================================================
Содержание индексной карты (.CUE)
REM GENRE "Православные песнопения"
REM DATE 2018
REM DISCID 120CAE12
REM COMMENT "ExactAudioCopy v1.5"
PERFORMER "Ансамбль сестер Свято-Елисаветинского монастыря, регент монахиня Иулиания (Денисова)"
TITLE "Наша вера"
REM COMPOSER ""
FILE "Наша вера - Ансамбль сестер Свято-Елисаветинского монастыря - 2018.flac" WAVE
TRACK 01 AUDIO
TITLE "Отверзу уста моя (I Shall Open My Mouth)"
PERFORMER "Ансамбль сестер Свято-Елисаветинского монастыря, регент монахиня Иулиания (Денисова)"
REM COMPOSER ""
INDEX 01 00:00:00
TRACK 02 AUDIO
TITLE "О, Всепетая Мати (O All-Praised Mother)"
PERFORMER "Ансамбль сестер Свято-Елисаветинского монастыря, регент монахиня Иулиания (Денисова)"
REM COMPOSER ""
INDEX 01 01:46:42
TRACK 03 AUDIO
TITLE "Песнь Богородицы (Song of the Theotokos)"
PERFORMER "Ансамбль сестер Свято-Елисаветинского монастыря, регент монахиня Иулиания (Денисова)"
REM COMPOSER ""
INDEX 01 04:52:48
TRACK 04 AUDIO
TITLE "Достойно есть (It Is Truly Meet)"
PERFORMER "Ансамбль сестер Свято-Елисаветинского монастыря, регент монахиня Иулиания (Денисова)"
REM COMPOSER ""
INDEX 01 08:35:67
TRACK 05 AUDIO
TITLE "Ирмосы канона 'Яко по суху' (When Israel Walked. — Irmoses of the Canon of Repentance)"
PERFORMER "Ансамбль сестер Свято-Елисаветинского монастыря, регент монахиня Иулиания (Денисова)"
REM COMPOSER ""
INDEX 01 10:07:56
TRACK 06 AUDIO
TITLE "Оком благоутробным, Господи (O Lord Look upon Me with Eyes of Mercy)"
PERFORMER "Ансамбль сестер Свято-Елисаветинского монастыря, регент монахиня Иулиания (Денисова)"
REM COMPOSER ""
INDEX 01 13:46:16
TRACK 07 AUDIO
TITLE "Наша вера (Our Faith)"
PERFORMER "Ансамбль сестер Свято-Елисаветинского монастыря, регент монахиня Иулиания (Денисова)"
REM COMPOSER ""
INDEX 01 16:36:44
TRACK 08 AUDIO
TITLE "Даруй, Боже, благодать (Give Grace O God)"
PERFORMER "Ансамбль сестер Свято-Елисаветинского монастыря, регент монахиня Иулиания (Денисова)"
REM COMPOSER ""
INDEX 01 19:25:01
TRACK 09 AUDIO
TITLE "Был у Христа-Младенца сад (When Jesus Christ Was Yet a Child)"
PERFORMER "Ансамбль сестер Свято-Елисаветинского монастыря, регент монахиня Иулиания (Денисова)"
REM COMPOSER ""
INDEX 01 21:55:67
TRACK 10 AUDIO
TITLE "Французская Рождественская песня (French Christmas Carol)"
PERFORMER "Ансамбль сестер Свято-Елисаветинского монастыря, регент монахиня Иулиания (Денисова)"
REM COMPOSER ""
INDEX 01 24:30:11
TRACK 11 AUDIO
TITLE "Купалинка (Kupalinka)"
PERFORMER "Ансамбль сестер Свято-Елисаветинского монастыря, регент монахиня Иулиания (Денисова)"
REM COMPOSER ""
INDEX 01 26:09:12
TRACK 12 AUDIO
TITLE "Вьюн над водой (Haze over Water)"
PERFORMER "Ансамбль сестер Свято-Елисаветинского монастыря, регент монахиня Иулиания (Денисова)"
REM COMPOSER ""
INDEX 01 29:24:49
TRACK 13 AUDIO
TITLE "Батюшка наш Серафим (Our Father Seraphim)"
PERFORMER "Ансамбль сестер Свято-Елисаветинского монастыря, регент монахиня Иулиания (Денисова)"
REM COMPOSER ""
INDEX 01 34:12:74
TRACK 14 AUDIO
TITLE "Матушка, Великая княгиня (O Matushka the Grand Princess)"
PERFORMER "Ансамбль сестер Свято-Елисаветинского монастыря, регент монахиня Иулиания (Денисова)"
REM COMPOSER ""
INDEX 01 37:45:38
TRACK 15 AUDIO
TITLE "С чего начинается Родина (What Does the Motherland Begin with?)"
PERFORMER "Ансамбль сестер Свято-Елисаветинского монастыря, регент монахиня Иулиания (Денисова)"
REM COMPOSER ""
INDEX 01 43:53:39
TRACK 16 AUDIO
TITLE "Сохрани Господь (Save O Lord)"
PERFORMER "Ансамбль сестер Свято-Елисаветинского монастыря, регент монахиня Иулиания (Денисова)"
REM COMPOSER ""
INDEX 01 46:03:15
TRACK 17 AUDIO
TITLE "Всего-то навсего (You Simply Have to Love)"
PERFORMER "Ансамбль сестер Свято-Елисаветинского монастыря, регент монахиня Иулиания (Денисова)"
REM COMPOSER ""
INDEX 01 48:51:36
TRACK 18 AUDIO
TITLE "На многая лета (Many Years)"
PERFORMER "Ансамбль сестер Свято-Елисаветинского монастыря, регент монахиня Иулиания (Денисова)"
REM COMPOSER ""
INDEX 01 52:47:73
Скриншот спектра частот
Spectrum pic
Frequency pic
DR Meter pic
Tracks pic
Об альбоме
В новый диск ансамбля сестер Свято-Елисаветинского монастыря вошли песнопения и духовные песни, столь полюбившиеся прихожанам и слушателям во многих городах и странах мира. Сестры побывали там с просветительскими концертами и участвовали в богослужениях, неся людям отсвет монастырской благодати и частичку душевного тепла.

This new album by the Monastic Choir of St Elisabeth Convent features church chants and spiritual songs, which have been popular with listeners around the world. Our monastic sisters have toured many cities and towns, bringing the light of grace ant the warmth of their souls to their audiences.
pic


Download

Войдите на сайт, чтобы увидеть полную информацию.

Как скачивать  ·   Правила трекера


_________________
«…В жизни у меня только одна задача – храм этот оберегать и богатства его приумножать. Каждый кирпичик этого храма, каждая вечная книга, каждая вечная мелодия несут в себе спрессованный опыт человечества, мысли его и мысли о нём…» (~Стругацкие)
[Профиль]  [ЛС] 
Показать сообщения:    
Ответить на тему

Текущее время: 28-Янв 16:12

Часовой пояс: GMT + 4



Вы не можете начинать темы
Вы не можете отвечать на сообщения
Вы не можете редактировать свои сообщения
Вы не можете удалять свои сообщения
Вы не можете голосовать в опросах
Вы не можете прикреплять файлы к сообщениям
Вы не можете скачивать файлы