Loading...
Error

(Православные песнопения) Цветы радости и печали - Праздничный хор Свято-Елисаветинского монастыря. Регент мон. Иулиания (Денисова) - 2012, FLAC (image + .cue), lossless

Ответить на тему
Статистика раздачи
   
 
Автор Сообщение

Petrorin

Стаж: 2 месяца 1 день

Сообщений: 29

post 06-Дек-2020 15:55

[Цитировать] 

Праздничный хор Свято-Елисаветинского монастыря. Регент мон. Иулиания (Денисова) / Цветы радости и печали

pic
Жанр: православные песнопения
Носитель: CD
Страна: Белоруссия
Год издания: 2012
Формат: FLAC (image + .cue)
Битрейт аудио: lossless
Продолжительность: 01:11:23
Источник: собственный рип
Наличие сканов: pdf
Треклист:
01. Благослови, душе моя, Господа (Bless the Lord, my Soul)
02. Кирие элейсон (Kyrie Eleison)
03. Радость земная и радость духовная (Worldly joy and spiritual joy)
04. Три Пасхальных песнопения: Предварившая утро; Аще и во гроб; Ангел вопияше (When at dawn, the women with Mary came. Though thou didst descend into the grave. The Angel cried)
05. Псалом 33 (Psalm 33)
06. О Тебе радуется (All of creation rejoices in Thee)
07. Человеку свойственно ошибаться (Errare humanum est)
08. Се время покаяния. Древо неплодное (This time for repentance. Fruitless tree)
09. Яко по суху пешешествовав Израиль (When Israel walked)
10. Попечение жития (The earthly cares...)
11. Христианское сердце созерцает чудеса (The heart of a Christian sees miracles)
12. Кондак акафиста Покрову Пресвятой Богородицы (Kontakion of the Akathist to the Protection of the Most Holy Mother of God)
13. Кондак акафиста св. ап. Андрею Первозванному (Kontakion of the Akathist to the Holy apostle Andrew the First-called)
14. Слеза (A tear)
15. Три Ангела (Three Angels)
16. Калинушка (Kalinushka)
17. Под лесом (By the forest)
18. Красное Село (Krasnoye Selo)
19. Всего-то навсего (You simply have to love)
Лог создания рипа
Exact Audio Copy V1.5 from 20. February 2020

Отчёт EAC об извлечении, выполненном 24. октября 2020, 0:46

Праздничный хор Свято-Елисаветинского монастыря, регент монахиня Иулиания (Денисова) / Цветы радости и печали

Дисковод: HL-DT-STDVDRAM GH22NS40 Adapter: 1 ID: 0

Режим чтения : Достоверность
Использование точного потока : Да
Отключение кэша аудио : Да
Использование указателей C2 : Нет

Коррекция смещения при чтении : 667
Способность читать области Lead-in и Lead-out : Нет
Заполнение пропущенных сэмплов тишиной : Да
Удаление блоков с тишиной в начале и конце : Нет
При вычислениях CRC использовались нулевые сэмплы : Да
Интерфейс : Встроенный Win32-интерфейс для Win NT/2000

Выходной формат : Пользовательский кодировщик
Выбранный битрейт : 1024 kBit/s
Качество : Высокий
Добавление ID3-тега : Нет
Утилита сжатия : C:\Program Files (x86)\Exact Audio Copy\Flac\flac.exe
Дополнительные параметры : -V -8 -T "Date=%year%" -T "Genre=%genre%" %source%

TOC извлечённого CD

Трек | Старт | Длительность | Начальный сектор | Конечный сектор
---------------------------------------------------------------------
1 | 0:00.00 | 3:43.46 | 0 | 16770
2 | 3:43.46 | 1:54.53 | 16771 | 25373
3 | 5:38.24 | 7:43.17 | 25374 | 60115
4 | 13:21.41 | 2:12.64 | 60116 | 70079
5 | 15:34.30 | 4:15.16 | 70080 | 89220
6 | 19:49.46 | 2:20.61 | 89221 | 99781
7 | 22:10.32 | 7:20.43 | 99782 | 132824
8 | 29:31.00 | 4:26.50 | 132825 | 152824
9 | 33:57.50 | 3:51.64 | 152825 | 170213
10 | 37:49.39 | 2:02.28 | 170214 | 179391
11 | 39:51.67 | 5:55.12 | 179392 | 206028
12 | 45:47.04 | 2:57.63 | 206029 | 219366
13 | 48:44.67 | 1:41.72 | 219367 | 227013
14 | 50:26.64 | 3:02.12 | 227014 | 240675
15 | 53:29.01 | 4:02.09 | 240676 | 258834
16 | 57:31.10 | 3:21.54 | 258835 | 273963
17 | 60:52.64 | 1:56.56 | 273964 | 282719
18 | 62:49.45 | 3:38.46 | 282720 | 299115
19 | 66:28.16 | 4:55.44 | 299116 | 321284

Характеристики диапазона извлечения и сообщения об ошибках

Выбранный диапазон

Имя файла I:\5. EAC\Цветы радости и печали - Праздничный хор Свято-Елисаветинского монастыря - 2012.wav

Пиковый уровень 95.2 %
Скорость извлечения 1.9 X
Качество диапазона 99.9 %
CRC теста 55853AEE
CRC копии 55853AEE
Копирование... OK

Ошибок не произошло

AccurateRip: сводка

Трек 1 отсутствует в базе данных
Трек 2 отсутствует в базе данных
Трек 3 отсутствует в базе данных
Трек 4 отсутствует в базе данных
Трек 5 отсутствует в базе данных
Трек 6 отсутствует в базе данных
Трек 7 отсутствует в базе данных
Трек 8 отсутствует в базе данных
Трек 9 отсутствует в базе данных
Трек 10 отсутствует в базе данных
Трек 11 отсутствует в базе данных
Трек 12 отсутствует в базе данных
Трек 13 отсутствует в базе данных
Трек 14 отсутствует в базе данных
Трек 15 отсутствует в базе данных
Трек 16 отсутствует в базе данных
Трек 17 отсутствует в базе данных
Трек 18 отсутствует в базе данных
Трек 19 отсутствует в базе данных

Ни одного трека нет в базе AccurateRip

Конец отчёта

==== Контрольная сумма отчёта 5AEDFADC4C2E86659356C8762B52F633080BB7B6DFC03E96D386327CDB284901 ====
Лог Dynamic Range Meter
foobar2000 1.5.5 / Dynamic Range Meter 1.1.1
log date: 2020-10-25 17:44:24

--------------------------------------------------------------------------------
Statistics for: ?-Цветы радости и печали - Праздничный хор Свято-Елисаветинского монастыря - 2012
Number of samples: 188915580
Duration: 1:11:24
--------------------------------------------------------------------------------

Left Right

Peak Value: -0.43 dB --- -0.54 dB
Avg RMS: -18.92 dB --- -19.40 dB
DR channel: 13.83 dB --- 14.23 dB
--------------------------------------------------------------------------------

Official DR Value: DR14

Samplerate: 44100 Hz
Channels: 2
Bits per sample: 16
Bitrate: 640 kbps
Codec: FLAC
================================================================================
Содержание индексной карты (.CUE)
REM GENRE "Православные песнопения"
REM DATE 2012
REM DISCID 0710BB13
REM COMMENT "ExactAudioCopy v1.5"
PERFORMER "Праздничный хор Свято-Елисаветинского монастыря, регент монахиня Иулиания (Денисова)"
TITLE "Цветы радости и печали"
REM COMPOSER ""
FILE "Цветы радости и печали - Праздничный хор Свято-Елисаветинского монастыря - 2012.flac" WAVE
TRACK 01 AUDIO
TITLE "Благослови, душе моя, Господа (Bless the Lord, my Soul)"
PERFORMER "Праздничный хор Свято-Елисаветинского монастыря, регент монахиня Иулиания (Денисова)"
REM COMPOSER ""
FLAGS DCP
INDEX 01 00:00:00
TRACK 02 AUDIO
TITLE "Кирие элейсон (Kyrie Eleison)"
PERFORMER "Праздничный хор Свято-Елисаветинского монастыря, регент монахиня Иулиания (Денисова)"
REM COMPOSER ""
FLAGS DCP
INDEX 01 03:43:46
TRACK 03 AUDIO
TITLE "Радость земная и радость духовная (Worldly joy and spiritual joy)"
PERFORMER "Протоиерей Артемий Владимиров"
REM COMPOSER ""
FLAGS DCP
INDEX 01 05:38:24
TRACK 04 AUDIO
TITLE "Три Пасхальных песнопения: Предварившая утро; Аще и во гроб; Ангел вопияше (When at dawn, the women with Mary came. Though thou didst descend into the grave. The Angel cried)"
PERFORMER "Праздничный хор Свято-Елисаветинского монастыря, регент монахиня Иулиания (Денисова)"
REM COMPOSER ""
FLAGS DCP
INDEX 01 13:21:41
TRACK 05 AUDIO
TITLE "Псалом 33 (Psalm 33)"
PERFORMER "Праздничный хор Свято-Елисаветинского монастыря, регент монахиня Иулиания (Денисова)"
REM COMPOSER ""
FLAGS DCP
INDEX 01 15:34:30
TRACK 06 AUDIO
TITLE "О Тебе радуется (All of creation rejoices in Thee)"
PERFORMER "Праздничный хор Свято-Елисаветинского монастыря, регент монахиня Иулиания (Денисова)"
REM COMPOSER ""
FLAGS DCP
INDEX 01 19:49:46
TRACK 07 AUDIO
TITLE "Человеку свойственно ошибаться (Errare humanum est)"
PERFORMER "Протоиерей Артемий Владимиров"
REM COMPOSER ""
FLAGS DCP
INDEX 01 22:10:32
TRACK 08 AUDIO
TITLE "Се время покаяния. Древо неплодное (This time for repentance. Fruitless tree)"
PERFORMER "Праздничный хор Свято-Елисаветинского монастыря, регент монахиня Иулиания (Денисова)"
REM COMPOSER ""
FLAGS DCP
INDEX 01 29:31:00
TRACK 09 AUDIO
TITLE "Яко по суху пешешествовав Израиль (When Israel walked)"
PERFORMER "Праздничный хор Свято-Елисаветинского монастыря, регент монахиня Иулиания (Денисова)"
REM COMPOSER ""
FLAGS DCP
INDEX 01 33:57:50
TRACK 10 AUDIO
TITLE "Попечение жития (The earthly cares...)"
PERFORMER "Праздничный хор Свято-Елисаветинского монастыря, регент монахиня Иулиания (Денисова)"
REM COMPOSER ""
FLAGS DCP
INDEX 01 37:49:39
TRACK 11 AUDIO
TITLE "Христианское сердце созерцает чудеса (The heart of a Christian sees miracles)"
PERFORMER "Протоиерей Артемий Владимиров"
REM COMPOSER ""
FLAGS DCP
INDEX 01 39:51:67
TRACK 12 AUDIO
TITLE "Кондак акафиста Покрову Пресвятой Богородицы (Kontakion of the Akathist to the Protection of the Most Holy Mother of God)"
PERFORMER "Праздничный хор Свято-Елисаветинского монастыря, регент монахиня Иулиания (Денисова)"
REM COMPOSER ""
FLAGS DCP
INDEX 01 45:47:04
TRACK 13 AUDIO
TITLE "Кондак акафиста св. ап. Андрею Первозванному (Kontakion of the Akathist to the Holy apostle Andrew the First-called)"
PERFORMER "Праздничный хор Свято-Елисаветинского монастыря, регент монахиня Иулиания (Денисова)"
REM COMPOSER ""
FLAGS DCP
INDEX 01 48:44:67
TRACK 14 AUDIO
TITLE "Слеза (A tear)"
PERFORMER "Праздничный хор Свято-Елисаветинского монастыря, регент монахиня Иулиания (Денисова)"
REM COMPOSER ""
FLAGS DCP
INDEX 01 50:26:64
TRACK 15 AUDIO
TITLE "Три Ангела (Three Angels)"
PERFORMER "Праздничный хор Свято-Елисаветинского монастыря, регент монахиня Иулиания (Денисова)"
REM COMPOSER ""
FLAGS DCP
INDEX 01 53:29:01
TRACK 16 AUDIO
TITLE "Калинушка (Kalinushka)"
PERFORMER "Максим Павлов"
REM COMPOSER ""
FLAGS DCP
INDEX 01 57:31:10
TRACK 17 AUDIO
TITLE "Под лесом (By the forest)"
PERFORMER "Максим Павлов"
REM COMPOSER ""
FLAGS DCP
INDEX 01 60:52:64
TRACK 18 AUDIO
TITLE "Красное Село (Krasnoye Selo)"
PERFORMER "Праздничный хор Свято-Елисаветинского монастыря, регент монахиня Иулиания (Денисова), Максим Павлов"
REM COMPOSER ""
FLAGS DCP
INDEX 01 62:49:45
TRACK 19 AUDIO
TITLE "Всего-то навсего (You simply have to love)"
PERFORMER "Праздничный хор Свято-Елисаветинского монастыря, регент монахиня Иулиания (Денисова)"
REM COMPOSER ""
FLAGS DCP
INDEX 01 66:28:16
Скриншоты спектра частот
Spectrum pic
Frequency pic
DR Meter pic
Tracks pic
Об альбоме
Записано 20 мая 2012 года в Белорусской государственной филармонии, г. Минск.
Звукорежиссеры: Д. Коршакевич, К. Карманов.

Recorded on May 20, 2012 at the Belarusian State Philharmonic, Minsk.
Sound Engineers: D. Korshakevich, K. Karmanov.
pic
Download

Войдите на сайт, чтобы увидеть полную информацию.

Как скачивать  ·   Правила трекера


_________________
«…В жизни у меня только одна задача – храм этот оберегать и богатства его приумножать. Каждый кирпичик этого храма, каждая вечная книга, каждая вечная мелодия несут в себе спрессованный опыт человечества, мысли его и мысли о нём…» (~Стругацкие)
[Профиль]  [ЛС] 
Показать сообщения:    
Ответить на тему

Текущее время: 21-Янв 04:46

Часовой пояс: GMT + 4



Вы не можете начинать темы
Вы не можете отвечать на сообщения
Вы не можете редактировать свои сообщения
Вы не можете удалять свои сообщения
Вы не можете голосовать в опросах
Вы не можете прикреплять файлы к сообщениям
Вы не можете скачивать файлы