Loading...
Error

(Православные песнопения) Пение всеумиленное - Хор Минского Свято-Петро-Павловского собора. Регент Ирина Денисова - 2010, FLAC (image + .cue), lossless

Ответить на тему
Статистика раздачи
   
 
Автор Сообщение

Petrorin

Стаж: 1 год 2 месяца

Сообщений: 32

post 06-Дек-2020 15:00

[Цитировать] 

Хор Минского Свято-Петро-Павловского собора. Регент Ирина Денисова / Пение всеумиленное

pic
Жанр: православные песнопения
Носитель: CD
Страна: Белоруссия
Год выпуска: 2010
Формат: FLAC (image + .cue)
Битрейт аудио: lossless
Продолжительность: 01:09:25
Источник: собственный рип
Наличие сканов: да
Треклист
01. Кондак акафиста пред иконою Божией Матери "Всецарица" (Akathist to the Most Holy Theotokos Pantanassa — Kontakion)
02. Кондак акафиста св. ап. Андрею Первозванному (Akathist to St. Andrew the First-Called — Kontakion)
03. Кондак акафиста пред иконою Божией Матери "Утоли моя печали" (Akathist to the Most Holy Theotokos Assuage my Sorrow — Kontakion)
04. Кондак акафиста свв. Виленским мчч. Антонию, Иоанну и Евстафию (Akathist to St. Anthony, St. John and St. Evstaphy, the Martyrs of Vilno — Kontakion)
05. Кондак акафиста Покрову Пресвятой Богородицы (Akathist to the Theotokos on the Feast of Her Protection — Kontakion)
06. Кондак акафиста св. вмц. Екатерине (Akathist to St. Catherine the Great Martyr — Kontakion)
07. Кондак акафиста св. царю и страстотерпцу Николаю (Akathist to St. Nicholas the Royal Martyr)
08. Кондак Великого канона прп. Андрея Критского "Душе моя" (Great Canon of St. Andrew of Crete, Kontakion — My Soul)
09. Оком благоутробным, Господи. — Тропари по 13-й кафизме (Have My Humbleness in Your Merciful Eye, O Lord. — Troparion after Kathisma 13)
10. Одеяйся светом, яко ризою. — Антифон Великой Пятницы (Great and Holy Friday Antiphon — He Who Clothes Himself with Light as with a Garment)
11. Херувимская песнь. — Знаменный распев (Cherubic Hymn. — Harmonized Znamenny Chant)
12. Ирмосы канона Богородице "Воду прошед, яко сушу". — Глас 8 (Irmos from the Canon to the Most Holy Theotokos, Tone 8 — Having Crossed Water as Dry Land)
13. Величит душа Моя Господа. — Обиходный напев (Irmos from the Canon to the Most Holy Theotokos — My Soul Doth Magnify the Lord)
14. Ирмосы канона Сретению Господню. — Глас 3 (Irmos from the Canon to the Meeting of our Lord and God and Savior Jesus Christ. — Tone 3)
15. Богородице Дево, радуйся. — Глас 4 (O Virgin Theotokos, Rejoice. — Tone 3)
16. Единородный Сыне. — Глас 3 (The Only-Begotten Son. — Tone 3)
17. Трисвятое (Trisagion)
18. Достойно есть (It Is Meet and Right)
19. Под Твою милость (We Place All our Hope in Thee, Most Holy Virgin Theotokos)
20. Во Царствии Твоем. — На тему С.В. Рахманинова (In Thy Kingdom. — S.V. Rakhmaninov)
21. Херувимская песнь (Cherubic Hymn)
22. Попечение жития. — Молитва по 5-й кафизме (Prayer after Kathisma 5 — Earthly Cares)
23. Полиелей (Polielea)
24. Покаяния отверзи ми двери (Open to me the Gates of Repentance)
25. Стихира на погребение (Funeral Sticheron)
26. Со всякою скорбию. — Стихира Божией Матери (Sticheron to the Holy Theotokos — Look upon my Sorrow, O Virgin Theotokos)
27. Пресвятая Богородице. — Стихи иеромонаха Романа (O Most Holy Mother of God. — Lyrics by Hieromonk Roman)
28. Дни мои. — Стихи протоиерея Андрея Логвинова (My Days. — Lyrics by Archpriest Andrey Logvinov)
Лог создания рипа
Exact Audio Copy V1.5 from 20. February 2020

Отчёт EAC об извлечении, выполненном 16. октября 2020, 2:03

Хор Минского Св.-Петро-Павловского собора под упр. И. Денисовой / Пение всеумиленное

Дисковод: HL-DT-STDVDRAM GH22NS40 Adapter: 1 ID: 0

Режим чтения : Достоверность
Использование точного потока : Да
Отключение кэша аудио : Да
Использование указателей C2 : Нет

Коррекция смещения при чтении : 667
Способность читать области Lead-in и Lead-out : Нет
Заполнение пропущенных сэмплов тишиной : Да
Удаление блоков с тишиной в начале и конце : Нет
При вычислениях CRC использовались нулевые сэмплы : Да
Интерфейс : Встроенный Win32-интерфейс для Win NT/2000

Выходной формат : Пользовательский кодировщик
Выбранный битрейт : 1024 kBit/s
Качество : Высокий
Добавление ID3-тега : Нет
Утилита сжатия : C:\Program Files (x86)\Exact Audio Copy\Flac\flac.exe
Дополнительные параметры : -V -8 -T "Date=%year%" -T "Genre=%genre%" %source%

TOC извлечённого CD

Трек | Старт | Длительность | Начальный сектор | Конечный сектор
---------------------------------------------------------------------
1 | 0:00.00 | 1:21.55 | 0 | 6129
2 | 1:21.55 | 1:46.56 | 6130 | 14135
3 | 3:08.36 | 2:15.33 | 14136 | 24293
4 | 5:23.69 | 1:58.05 | 24294 | 33148
5 | 7:21.74 | 2:50.71 | 33149 | 45969
6 | 10:12.70 | 2:02.30 | 45970 | 55149
7 | 12:15.25 | 1:56.70 | 55150 | 63919
8 | 14:12.20 | 2:22.20 | 63920 | 74589
9 | 16:34.40 | 2:49.47 | 74590 | 87311
10 | 19:24.12 | 2:07.09 | 87312 | 96845
11 | 21:31.21 | 5:26.56 | 96846 | 121351
12 | 26:58.02 | 2:36.16 | 121352 | 133067
13 | 29:34.18 | 3:59.65 | 133068 | 151057
14 | 33:34.08 | 3:38.48 | 151058 | 167455
15 | 37:12.56 | 1:01.08 | 167456 | 172038
16 | 38:13.64 | 1:21.07 | 172039 | 178120
17 | 39:34.71 | 1:38.26 | 178121 | 185496
18 | 41:13.22 | 1:38.55 | 185497 | 192901
19 | 42:52.02 | 1:18.31 | 192902 | 198782
20 | 44:10.33 | 2:13.63 | 198783 | 208820
21 | 46:24.21 | 3:49.63 | 208821 | 226058
22 | 50:14.09 | 1:36.23 | 226059 | 233281
23 | 51:50.32 | 1:44.63 | 233282 | 241144
24 | 53:35.20 | 4:13.42 | 241145 | 260161
25 | 57:48.62 | 2:56.31 | 260162 | 273392
26 | 60:45.18 | 2:56.58 | 273393 | 286650
27 | 63:42.01 | 3:04.15 | 286651 | 300465
28 | 66:46.16 | 2:38.69 | 300466 | 312384

Характеристики диапазона извлечения и сообщения об ошибках

Выбранный диапазон

Имя файла G:\ПРАВОСЛАВНОЕ ПЕНИЕ\Пение всеумиленное - Хор Минского Св.-Петро-Павловского собора\Пение всеумиленное - Хор Минского Св.-Петро-Павловского собора - 2010.wav

Пиковый уровень 93.8 %
Скорость извлечения 2.0 X
Качество диапазона 100.0 %
CRC теста CEF249FA
CRC копии CEF249FA
Копирование... OK

Ошибок не произошло

AccurateRip: сводка

Трек 1 : извлечено точно (достоверность 1) [A31DEAF7] (AR v2)
Трек 2 : извлечено точно (достоверность 1) [50BC730B] (AR v2)
Трек 3 : извлечено точно (достоверность 1) [B8E2CEA2] (AR v2)
Трек 4 : извлечено точно (достоверность 1) [988F63D3] (AR v2)
Трек 5 : извлечено точно (достоверность 1) [76CC2E22] (AR v2)
Трек 6 : извлечено точно (достоверность 1) [F6A454A0] (AR v2)
Трек 7 : извлечено точно (достоверность 1) [46ED8543] (AR v2)
Трек 8 : извлечено точно (достоверность 1) [CC4C7CF3] (AR v2)
Трек 9 : извлечено точно (достоверность 1) [03F143A5] (AR v2)
Трек 10 : извлечено точно (достоверность 1) [3FE8EA2A] (AR v2)
Трек 11 : извлечено точно (достоверность 1) [00641C70] (AR v2)
Трек 12 : извлечено точно (достоверность 1) [B689C715] (AR v2)
Трек 13 : извлечено точно (достоверность 1) [4A0E986F] (AR v2)
Трек 14 : извлечено точно (достоверность 1) [DB9D5474] (AR v2)
Трек 15 : извлечено точно (достоверность 1) [DCCB4F46] (AR v2)
Трек 16 : извлечено точно (достоверность 1) [6DC91F8E] (AR v2)
Трек 17 : извлечено точно (достоверность 1) [9C8DD2CC] (AR v2)
Трек 18 : извлечено точно (достоверность 1) [50BC7F88] (AR v2)
Трек 19 : извлечено точно (достоверность 1) [C347B4F7] (AR v2)
Трек 20 : извлечено точно (достоверность 1) [0B7E4B21] (AR v2)
Трек 21 : извлечено точно (достоверность 1) [F837C987] (AR v2)
Трек 22 : извлечено точно (достоверность 1) [32E7F28D] (AR v2)
Трек 23 : извлечено точно (достоверность 1) [6793F623] (AR v2)
Трек 24 : извлечено точно (достоверность 1) [7392BC3C] (AR v2)
Трек 25 : извлечено точно (достоверность 1) [706555B6] (AR v2)
Трек 26 : извлечено точно (достоверность 1) [5B835AC8] (AR v2)
Трек 27 : извлечено точно (достоверность 1) [04E94241] (AR v2)
Трек 28 : извлечено точно (достоверность 1) [32B09E3F] (AR v2)

Все треки извлечены точно

Конец отчёта

==== Контрольная сумма отчёта 613266F4D41892946CE1730DAD92E7DDF15CBCF8EFFCEC37C65029B9FC584307 ====
Лог Dynamic Range Meter
foobar2000 1.5.5 / Dynamic Range Meter 1.1.1
log date: 2020-10-25 14:37:35

--------------------------------------------------------------------------------
Statistics for: ?-Пение всеумиленное - Хор Минского Св.-Петро-Павловского собора - 2010
Number of samples: 183682380
Duration: 1:09:25
--------------------------------------------------------------------------------

Left Right

Peak Value: -0.55 dB --- -0.61 dB
Avg RMS: -21.38 dB --- -21.29 dB
DR channel: 15.63 dB --- 15.41 dB
--------------------------------------------------------------------------------

Official DR Value: DR16

Samplerate: 44100 Hz
Channels: 2
Bits per sample: 16
Bitrate: 534 kbps
Codec: FLAC
================================================================================
Содержание индексной карты (.CUE)
REM GENRE "Православные песнопения"
REM DATE 2010
REM DISCID 8C10451C
REM COMMENT "ExactAudioCopy v1.5"
PERFORMER "Хор Минского Св.-Петро-Павловского собора под упр. И. Денисовой"
TITLE "Пение всеумиленное"
REM COMPOSER ""
FILE "Пение всеумиленное - Хор Минского Св.-Петро-Павловского собора - 2010.flac" WAVE
TRACK 01 AUDIO
TITLE "Кондак акафиста пред иконою Божией Матери 'Всецарица' (Akathist to the Most Holy Theotokos Pantanassa — Kontakion)"
PERFORMER "Хор Минского Св.-Петро-Павловского собора под упр. И. Денисовой"
REM COMPOSER ""
INDEX 01 00:00:00
TRACK 02 AUDIO
TITLE "Кондак акафиста св. ап. Андрею Первозванному (Akathist to St. Andrew the First-Called — Kontakion)"
PERFORMER "Хор Минского Св.-Петро-Павловского собора под упр. И. Денисовой"
REM COMPOSER ""
INDEX 01 01:21:55
TRACK 03 AUDIO
TITLE "Кондак акафиста пред иконою Божией Матери 'Утоли моя печали' (Akathist to the Most Holy Theotokos Assuage my Sorrow — Kontakion)"
PERFORMER "Хор Минского Св.-Петро-Павловского собора под упр. И. Денисовой"
REM COMPOSER ""
INDEX 01 03:08:36
TRACK 04 AUDIO
TITLE "Кондак акафиста свв. Виленским мчч. Антонию, Иоанну и Евстафию (Akathist to St. Anthony, St. John and St. Evstaphy, the Martyrs of Vilno — Kontakion)"
PERFORMER "Хор Минского Св.-Петро-Павловского собора под упр. И. Денисовой"
REM COMPOSER ""
INDEX 01 05:23:69
TRACK 05 AUDIO
TITLE "Кондак акафиста Покрову Пресвятой Богородицы (Akathist to the Theotokos on the Feast of Her Protection — Kontakion)"
PERFORMER "Хор Минского Св.-Петро-Павловского собора под упр. И. Денисовой"
REM COMPOSER ""
INDEX 01 07:21:74
TRACK 06 AUDIO
TITLE "Кондак акафиста св. вмц. Екатерине (Akathist to St. Catherine the Great Martyr — Kontakion)"
PERFORMER "Хор Минского Св.-Петро-Павловского собора под упр. И. Денисовой"
REM COMPOSER ""
INDEX 01 10:12:70
TRACK 07 AUDIO
TITLE "Кондак акафиста св. царю и страстотерпцу Николаю (Akathist to St. Nicholas the Royal Martyr)"
PERFORMER "Хор Минского Св.-Петро-Павловского собора под упр. И. Денисовой"
REM COMPOSER ""
INDEX 01 12:15:25
TRACK 08 AUDIO
TITLE "Кондак Великого канона прп. Андрея Критского 'Душе моя' (Great Canon of St. Andrew of Crete, Kontakion — My Soul)"
PERFORMER "Хор Минского Св.-Петро-Павловского собора под упр. И. Денисовой"
REM COMPOSER ""
INDEX 01 14:12:20
TRACK 09 AUDIO
TITLE "Оком благоутробным, Господи. — Тропари по 13-й кафизме (Have My Humbleness in Your Merciful Eye, O Lord — Troparion after Kathisma 13)"
PERFORMER "Хор Минского Св.-Петро-Павловского собора под упр. И. Денисовой"
REM COMPOSER ""
INDEX 01 16:34:40
TRACK 10 AUDIO
TITLE "Одеяйся светом, яко ризою. — Антифон Великой Пятницы (Great and Holy Friday Antiphon — He Who Clothes Himself with Light as with a Garment)"
PERFORMER "Хор Минского Св.-Петро-Павловского собора под упр. И. Денисовой"
REM COMPOSER ""
INDEX 01 19:24:12
TRACK 11 AUDIO
TITLE "Херувимская песнь. — Знаменный распев (Cherubic Hymn — Harmonized Znamenny Chant)"
PERFORMER "Хор Минского Св.-Петро-Павловского собора под упр. И. Денисовой"
REM COMPOSER ""
INDEX 01 21:31:21
TRACK 12 AUDIO
TITLE "Ирмосы канона Богородице 'Воду прошед, яко сушу'. — Глас 8 (Irmos from the Canon to the Most Holy Theotokos , Tone 8 — Having Crossed Water as Dry Land)"
PERFORMER "Хор Минского Св.-Петро-Павловского собора под упр. И. Денисовой"
REM COMPOSER ""
INDEX 01 26:58:02
TRACK 13 AUDIO
TITLE "Величит душа Моя Господа. — Обиходный напев (Irmos from the Canon to the Most Holy Theotokos — My Soul Doth Magnify the Lord)"
PERFORMER "Хор Минского Св.-Петро-Павловского собора под упр. И. Денисовой"
REM COMPOSER ""
INDEX 01 29:34:18
TRACK 14 AUDIO
TITLE "Ирмосы канона Сретению Господню. — Глас 3 (Irmos from the Canon to the Meeting of our Lord and God and Savior Jesus Christ — Tone 3)"
PERFORMER "Хор Минского Св.-Петро-Павловского собора под упр. И. Денисовой"
REM COMPOSER ""
INDEX 01 33:34:08
TRACK 15 AUDIO
TITLE "Богородице Дево, радуйся. — Глас 4 (O Virgin Theotokos, Rejoice — Tone 3)"
PERFORMER "Хор Минского Св.-Петро-Павловского собора под упр. И. Денисовой"
REM COMPOSER ""
INDEX 01 37:12:56
TRACK 16 AUDIO
TITLE "Единородный Сыне. — Глас 3 (The Only-Begotten Son — Tone 3)"
PERFORMER "Хор Минского Св.-Петро-Павловского собора под упр. И. Денисовой"
REM COMPOSER ""
INDEX 01 38:13:64
TRACK 17 AUDIO
TITLE "Трисвятое (Trisagion)"
PERFORMER "Хор Минского Св.-Петро-Павловского собора под упр. И. Денисовой"
REM COMPOSER ""
INDEX 01 39:34:71
TRACK 18 AUDIO
TITLE "Достойно есть (It Is Meet and Right)"
PERFORMER "Хор Минского Св.-Петро-Павловского собора под упр. И. Денисовой"
REM COMPOSER ""
INDEX 01 41:13:22
TRACK 19 AUDIO
TITLE "Под Твою милость (We Place All our Hope in Thee, Most Holy Virgin Theotokos)"
PERFORMER "Хор Минского Св.-Петро-Павловского собора под упр. И. Денисовой"
REM COMPOSER ""
INDEX 01 42:52:02
TRACK 20 AUDIO
TITLE "Во Царствии Твоем. — На тему С.В. Рахманинова (In Thy Kingdom — S.V. Rakhmaninov)"
PERFORMER "Хор Минского Св.-Петро-Павловского собора под упр. И. Денисовой"
REM COMPOSER ""
INDEX 01 44:10:33
TRACK 21 AUDIO
TITLE "Херувимская песнь (Cherubic Hymn)"
PERFORMER "Хор Минского Св.-Петро-Павловского собора под упр. И. Денисовой"
REM COMPOSER ""
INDEX 01 46:24:21
TRACK 22 AUDIO
TITLE "Попечение жития. — Молитва по 5-й кафизме (Prayer after Kathisma 5 — Earthly Cares)"
PERFORMER "Хор Минского Св.-Петро-Павловского собора под упр. И. Денисовой"
REM COMPOSER ""
INDEX 01 50:14:09
TRACK 23 AUDIO
TITLE "Полиелей (Polielea)"
PERFORMER "Хор Минского Св.-Петро-Павловского собора под упр. И. Денисовой"
REM COMPOSER ""
INDEX 01 51:50:32
TRACK 24 AUDIO
TITLE "Покаяния отверзи ми двери (Open to me the Gates of Repentance)"
PERFORMER "Хор Минского Св.-Петро-Павловского собора под упр. И. Денисовой"
REM COMPOSER ""
INDEX 01 53:35:20
TRACK 25 AUDIO
TITLE "Стихира на погребение (Funeral Sticheron)"
PERFORMER "Хор Минского Св.-Петро-Павловского собора под упр. И. Денисовой"
REM COMPOSER ""
INDEX 01 57:48:62
TRACK 26 AUDIO
TITLE "Со всякою скорбию. — Стихира Божией Матери (Sticheron to the Holy Theotokos — Look upon my Sorrow, O Virgin Theotokos)"
PERFORMER "Хор Минского Св.-Петро-Павловского собора под упр. И. Денисовой"
REM COMPOSER ""
INDEX 01 60:45:18
TRACK 27 AUDIO
TITLE "Пресвятая Богородице. — Стихи иеромонаха Романа (O Most Holy Mother of God. Lyrics by Hieromonk Roman)"
PERFORMER "Хор Минского Св.-Петро-Павловского собора под упр. И. Денисовой"
REM COMPOSER ""
INDEX 01 63:42:01
TRACK 28 AUDIO
TITLE "Дни мои. — Стихи протоиерея Андрея Логвинова (My Days. Lyrics by Archpriest Andrey Logvinov)"
PERFORMER "Хор Минского Св.-Петро-Павловского собора под упр. И. Денисовой"
REM COMPOSER ""
INDEX 01 66:46:16
Скриншот спектра частот
Spectrum pic
Frequency pic
DR Meter pic
Tracks pic
pic pic
Download

Войдите на сайт, чтобы увидеть полную информацию.

Как скачивать  ·   Правила трекера


_________________
«…В жизни у меня только одна задача – храм этот оберегать и богатства его приумножать. Каждый кирпичик этого храма, каждая вечная книга, каждая вечная мелодия несут в себе спрессованный опыт человечества, мысли его и мысли о нём…» (~Стругацкие)
[Профиль]  [ЛС] 
Показать сообщения:    
Ответить на тему

Текущее время: 28-Янв 23:39

Часовой пояс: GMT + 4



Вы не можете начинать темы
Вы не можете отвечать на сообщения
Вы не можете редактировать свои сообщения
Вы не можете удалять свои сообщения
Вы не можете голосовать в опросах
Вы не можете прикреплять файлы к сообщениям
Вы не можете скачивать файлы