Loading...
Error

Жизнь Иисуса Христа / The Life of Jesus Christ (2011-) (Брюс Нейбаур / Bruce Neibaur) [2011 г., Драма, WEBRip-AVC]

Ответить на тему
Статистика раздачи
   
 
Автор Сообщение

dzorg08

Стаж: 5 лет 8 месяцев

Сообщений: 2

Russia

post 13-Июн-2020 18:40

[Цитировать] 

Жизнь Иисуса Христа / The Life of Jesus Christ. TV Mini-Series (2011– )

pic
Год выпуска: 2011
Жанр: Драма
Продолжительность: 3 ч 42 мин
Перевод: русский дублированный

Режиссер: Брюс Нейбаур / Bruce Neibaur

В фильме снимались: Джон Фосс, Натан Митчелл, Алиса Джонсон, Кристофер Кларк, Марк Б. Дэвидсон, Джаред Уайт

Описание: История Нового Завета Господа нашего Иисуса Христа, реалистично описывающая происходившие события и практически с дословным синодальным переводом.

Качество: WEBRip-AVC
Формат: MKV, 1920x960
Видео кодек: H.265
Аудио кодек: AC3
Видео
Video ID : 1 Format : HEVC Format/Info : High Efficiency Video Coding Format profile : Main@L4@Main Codec ID : V_MPEGH/ISO/HEVC Duration : 3 h 42 min Bit rate : 5 216 kb/s Width : 1 920 pixels Height : 960 pixels Display aspect ratio : 2.000 Frame rate mode : Constant Frame rate : 24.000 FPS Color space : YUV Chroma subsampling : 4:2:0 Bit depth : 8 bits Bits/(Pixel*Frame) : 0.118 Stream size : 8.09 GiB (92%) Writing library : x265 1.4+424-2b93cf2a5ac8:[Windows][MSVC 1500][32 bit] Encoding settings : wpp / ctu=16 / tu-intra-depth=1 / tu-inter-depth=1 / me=0 / subme=0 / merange=25 / no-rect / no-amp / max-merge=2 / temporal-mvp / early-skip / no-fast-cbf / rdpenalty=0 / no-tskip / no-tskip-fast / strong-intra-smoothing / no-lossless / no-cu-lossless / no-constrained-intra / fast-intra / no-open-gop / interlace=0 / keyint=30 / min-keyint=1 / scenecut=0 / rc-lookahead=1 / bframes=0 / bframe-bias=0 / b-adapt=0 / ref=1 / no-weightp / no-weightb / aq-mode=0 / aq-strength=0.00 / cbqpoffs=0 / crqpoffs=0 / rd=2 / psy-rd=0.00 / psy-rdoq=0.00 / no-signhide / no-lft / no-sao / no-sao-non-deblock / no-b-pyramid / no-cutree / rc=abr / bitrate=5400 / qcomp=0.60 / qpmin=0 / qpmax=51 / qpstep=4 / ipratio=1.40 Default : Yes Forced : No Duration_Source : General_Duration
Аудио
Audio ID : 2 Format : AC-3 Format/Info : Audio Coding 3 Commercial name : Dolby Digital Codec ID : A_AC3 Duration : 3 h 42 min Bit rate mode : Constant Bit rate : 320 kb/s Channel(s) : 2 channels Channel layout : L R Sampling rate : 48.0 kHz Frame rate : 31.250 FPS (1536 SPF) Bit depth : 32 bits Compression mode : Lossy Delay relative to video : -42 ms Stream size : 509 MiB (6%) Service kind : Complete Main Default : Yes Forced : No Duration_Source : General_Duration
Скриншоты
pic pic pic pic pic
Download

Войдите на сайт, чтобы увидеть полную информацию.

Как скачивать  ·   Правила трекера



Последний раз редактировалось: dzorg08 (2020-06-15 16:17), всего редактировалось 5 раз(а)
[Профиль]  [ЛС] 

bratman

Стаж: 8 лет 5 месяцев

Сообщений: 28

Russia

post 14-Июн-2020 13:28 (спустя 18 часов)

[Цитировать] 

На немецком что ли?..
[Профиль]  [ЛС] 

dzorg08

Стаж: 5 лет 8 месяцев

Сообщений: 2

Russia

post 14-Июн-2020 21:42 (спустя 8 часов)

[Цитировать] 

bratman писал(а):

На немецком что ли?..
русский дублированный перевод
[Профиль]  [ЛС] 
Показать сообщения:    
Ответить на тему

Текущее время: 26-Окт 11:53

Часовой пояс: GMT + 4



Вы не можете начинать темы
Вы не можете отвечать на сообщения
Вы не можете редактировать свои сообщения
Вы не можете удалять свои сообщения
Вы не можете голосовать в опросах
Вы не можете прикреплять файлы к сообщениям
Вы не можете скачивать файлы