Loading...
Error

(Церковная музыка и церковные хоры (lossless).) Сергей Рахманинов. "Всенощное бдение, соч. 37". Государственный Академический Русский Хор CCCР.- 1988, APE (image + .cue), lossless

Ответить на тему
Статистика раздачи
   
 
Автор Сообщение

СЕРГУЛЕТ

Стаж: 11 лет

Сообщений: 2637

Откуда: LA ROMANA

Dominicanrep

post 10-Июл-2011 10:07

[Цитировать] 

Сергей Рахманинов. "Всенощное бдение, соч. 37". Государственный Академический Русский Хор СССР.

pic
Страна: СССР/ФРГ. "Melodia/Eurodisc".
Жанр: Церковная музыка и церковные хоры (lossless).
Год выпуска: 1988
Формат: APE (image + .cue)
Битрейт аудио: lossless
Продолжительность: 01:04:07
Трэклист:
1. Приидите, поклонимся
2. Благослови, душе моя, Господа
3. Блажен муж
4. Свете Тихий
5. Ныне отпущаеши
6. Богородице Дево, радуйся
7. Шестопсалмие
8. Хвалите имя Господне
9. Благословен еси, Господи
10. Воскресение Христово видевше
11. Величит душа моя Господа
12. Славословие Великое
13. Тропарь "Днесь спасение"
14. Тропарь "Воскрес из гроба"
15. Взбранной Воеводе
Дополнительная информация: Клара Коркан (меццо-сопрано)
Константин Огневой (тенор)
Государственный Академический Русский Хор СССР
Худ. руководитель и дирижёр - Александр Свешников

Запись: 1973 года.
EAC log
Exact Audio Copy V0.99 prebeta 4 from 23. January 2008

EAC extraction logfile from 4. June 2008, 19:33

USSR Russian Academic Chorus - Alexander Sveshnikov / Rachmaninov, All-Night Vigil (Vespers) Op.37

Used drive : HL-DT-STDVD-ROM GDRH20N Adapter: 7 ID: 0

Read mode : Secure
Utilize accurate stream : Yes
Defeat audio cache : Yes
Make use of C2 pointers : No

Read offset correction : 102
Overread into Lead-In and Lead-Out : No
Fill up missing offset samples with silence : Yes
Delete leading and trailing silent blocks : No
Null samples used in CRC calculations : No
Used interface : Installed external ASPI interface

Used output format : User Defined Encoder
Selected bitrate : 128 kBit/s
Quality : High
Add ID3 tag : No
Command line compressor : D:\Program files\Exact Audio Copy\wapet.exe
Additional command line options : %d -t "Artist=%a" -t "Title=%t" -t "Album=%g" -t "Year=%y" -t "Track=%n" -t "Genre=%m" "D:\Program files\Monkey's Audio\MAC.exe" %s %d -c2000

TOC of the extracted CD

Track | Start | Length | Start sector | End sector
---------------------------------------------------------
1 | 0:00.00 | 2:31.60 | 0 | 11384
2 | 2:31.60 | 5:37.72 | 11385 | 36731
3 | 8:09.57 | 5:42.23 | 36732 | 62404
4 | 13:52.05 | 3:40.67 | 62405 | 78971
5 | 17:32.72 | 4:29.18 | 78972 | 99164
6 | 22:02.15 | 2:59.70 | 99165 | 112659
7 | 25:02.10 | 3:16.62 | 112660 | 127421
8 | 28:18.72 | 3:43.13 | 127422 | 144159
9 | 32:02.10 | 7:14.10 | 144160 | 176719
10 | 39:16.20 | 3:16.02 | 176720 | 191421
11 | 42:32.22 | 7:56.03 | 191422 | 227124
12 | 50:28.25 | 8:18.57 | 227125 | 264531
13 | 58:47.07 | 1:37.05 | 264532 | 271811
14 | 60:24.12 | 3:09.65 | 271812 | 286051
15 | 63:34.02 | 1:42.18 | 286052 | 293719

Range status and errors

Selected range

Filename G:\CDs\USSR Russian Academic Chorus - Alexander Sveshnikov - Rachmaninov, All-Night Vigil (Vespers) Op.37.wav

Peak level 100.0 %
Range quality 99.9 %
Copy CRC D7797295
Copy OK

No errors occurred

End of status report
Download

Войдите на сайт, чтобы увидеть полную информацию.

Как скачивать  ·   Правила трекера

[Профиль]  [ЛС] 

Странник1

Стаж: 11 лет

Сообщений: 2307

Russia

post 13-Дек-2011 12:23 (спустя 5 месяцев 3 дня)

[Цитировать] 

Спасибо!
[Профиль]  [ЛС] 

aSpeeDAyad

Стаж: 10 лет

Сообщений: 10

Ukraine

post 02-Янв-2012 13:35 (спустя 20 дней)

[Цитировать] 

Спасибо !
[Профиль]  [ЛС] 

Брат Михаил

Стаж: 8 лет 11 месяцев

Сообщений: 4

Откуда: Черновцы

Ukraine

post 20-Фев-2012 20:44 (спустя 1 месяц 18 дней)

[Цитировать] 

Благодарствую!
[Профиль]  [ЛС] 

Dumbledore

Стаж: 8 лет

Сообщений: 1

Russia

post 29-Дек-2012 12:41 (спустя 10 месяцев)

[Цитировать] 

Одно из лучших, на мой взгляд, исполнений Всенощного Рахманинова.
[Профиль]  [ЛС] 

pelegrin

Стаж: 8 месяцев

Сообщений: 1

Russia

post 16-Май-2020 15:56 (спустя 7 лет 4 месяца)

[Цитировать] 

Прошу сидеров раздать, пожалуйста! Заранее благодарен!
[Профиль]  [ЛС] 
Показать сообщения:    
Ответить на тему

Текущее время: 21-Янв 11:25

Часовой пояс: GMT + 4



Вы не можете начинать темы
Вы не можете отвечать на сообщения
Вы не можете редактировать свои сообщения
Вы не можете удалять свои сообщения
Вы не можете голосовать в опросах
Вы не можете прикреплять файлы к сообщениям
Вы не можете скачивать файлы