Loading...
Error

(Духовное хоровое пение) Игумен Силуан (Туманов) - Избранные песнопения для однородного хора - 2007, FLAC (tracks+.cue) lossless

Ответить на тему
Статистика раздачи
   
 
Автор Сообщение

bioann

Стаж: 9 лет 4 месяца

Сообщений: 3

post 27-Июл-2010 01:33

[Цитировать] 

.
Игумен Силуан (Туманов)
Избранные песнопения для однородного хора
CD, Album
.

pic
Жанр: Духовное хоровое пение
Год выпуска диска: 2007
Производитель диска: Россия, Саранск
Аудио кодек: FLAC
Тип рипа: tracks+.cue
Битрейт аудио: lossless
Продолжительность: 00:53:17
.
Трэклист:
    01. Тропарь Рождества Христова - (01:22)
    02. 'Свете тихий', #1 - (02:23)
    03. 'Ныне отпущаеши', #1 - (01:45)
    04. Тропарь Пресвятой Троице - (00:58)
    05. 'Хвалите Имя Господне', #2 - (02:49)
    06. 'На реках Вавилонских', #1 - (10:29)
    07. Тропари по непорочных - (06:20)
    08. Антифоны степенны 8 гласа - (02:24)
    09. 'Покаяния отверзи ми двери', #2 - (04:54)
    10. 'Крест начертав' - (08:19)
    11. Светилен Пасхи - (01:48)
    12. Воскресный тропарь 8 гласа - (00:56)
    13. Евхарестический гимн - (03:16)
    14. Гимн любви св. ап. Павла - (05:35)
.

LOG
[pre]
Exact Audio Copy V0.99 prebeta 5 from 4. May 2009

EAC extraction logfile from 19. July 2010, 23:14

Игумен Силуан (Туманов) / Избранные песнопения для однородного хора

Used drive : HL-DT-STDVD-RAM GH22NS30 Adapter: 3 ID: 1

Read mode : Secure
Utilize accurate stream : Yes
Defeat audio cache : Yes
Make use of C2 pointers : No

Read offset correction : 102
Overread into Lead-In and Lead-Out : No
Fill up missing offset samples with silence : Yes
Delete leading and trailing silent blocks : No
Null samples used in CRC calculations : Yes
Used interface : Native Win32 interface for Win NT & 2000
Gap handling : Appended to previous track

Used output format : User Defined Encoder
Selected bitrate : 1024 kBit/s
Quality : High
Add ID3 tag : No
Command line compressor : C:\Program Files (x86)\Exact Audio Copy\Flac\flac.exe
Additional command line options : -8 -V -T "ARTIST=%a" -T "TITLE=%t" -T "ALBUM=%g" -T "DATE=%y" -T "TRACKNUMBER=%n" -T "GENRE=%m" -T "COMMENT=bioann & his eNJOY!Machine" %s

TOC of the extracted CD

Track | Start | Length | Start sector | End sector
---------------------------------------------------------
1 | 0:00.00 | 1:22.20 | 0 | 6169
2 | 1:22.20 | 2:22.56 | 6170 | 16875
3 | 3:45.01 | 1:45.01 | 16876 | 24751
4 | 5:30.02 | 0:57.54 | 24752 | 29080
5 | 6:27.56 | 2:48.56 | 29081 | 41736
6 | 9:16.37 | 10:28.71 | 41737 | 88907
7 | 19:45.33 | 6:19.60 | 88908 | 117392
8 | 26:05.18 | 2:23.53 | 117393 | 128170
9 | 28:28.71 | 4:54.17 | 128171 | 150237
10 | 33:23.13 | 8:18.65 | 150238 | 187652
11 | 41:42.03 | 1:48.13 | 187653 | 195765
12 | 43:30.16 | 0:55.58 | 195766 | 199948
13 | 44:25.74 | 3:16.23 | 199949 | 214671
14 | 47:42.22 | 5:35.08 | 214672 | 239804

Track 1

Filename C:\biorrrip\Игумен Силуан (Туманов) - Избранные песнопения для однородного хора (2007) [FLAC]\01. Тропарь Рождества Христова.wav

Pre-gap length 0:00:02.00

Peak level 49.2 %
Track quality 100.0 %
Test CRC 8579ADFA
Copy CRC 8579ADFA
Track not present in AccurateRip database
Copy OK

Track 2

Filename C:\biorrrip\Игумен Силуан (Туманов) - Избранные песнопения для однородного хора (2007) [FLAC]\02. 'Свете тихий', №1.wav

Peak level 56.9 %
Track quality 100.0 %
Test CRC 305ED379
Copy CRC 305ED379
Track not present in AccurateRip database
Copy OK

Track 3

Filename C:\biorrrip\Игумен Силуан (Туманов) - Избранные песнопения для однородного хора (2007) [FLAC]\03. 'Ныне отпущаеши', №1.wav

Peak level 49.9 %
Track quality 100.0 %
Test CRC 4B2C1567
Copy CRC 4B2C1567
Track not present in AccurateRip database
Copy OK

Track 4

Filename C:\biorrrip\Игумен Силуан (Туманов) - Избранные песнопения для однородного хора (2007) [FLAC]\04. Тропарь Пресвятой Троице.wav

Peak level 49.8 %
Track quality 100.0 %
Test CRC 2681EB45
Copy CRC 2681EB45
Track not present in AccurateRip database
Copy OK

Track 5

Filename C:\biorrrip\Игумен Силуан (Туманов) - Избранные песнопения для однородного хора (2007) [FLAC]\05. 'Хвалите Имя Господне', №2.wav

Peak level 47.9 %
Track quality 100.0 %
Test CRC 85071709
Copy CRC 85071709
Track not present in AccurateRip database
Copy OK

Track 6

Filename C:\biorrrip\Игумен Силуан (Туманов) - Избранные песнопения для однородного хора (2007) [FLAC]\06. 'На реках Вавилонских', №1.wav

Peak level 81.8 %
Track quality 100.0 %
Test CRC 01A5730A
Copy CRC 01A5730A
Track not present in AccurateRip database
Copy OK

Track 7

Filename C:\biorrrip\Игумен Силуан (Туманов) - Избранные песнопения для однородного хора (2007) [FLAC]\07. Тропари по непорочных.wav

Peak level 59.5 %
Track quality 100.0 %
Test CRC B0F100B7
Copy CRC B0F100B7
Track not present in AccurateRip database
Copy OK

Track 8

Filename C:\biorrrip\Игумен Силуан (Туманов) - Избранные песнопения для однородного хора (2007) [FLAC]\08. Антифоны степенны 8 гласа.wav

Peak level 41.1 %
Track quality 100.0 %
Test CRC 42E46E7B
Copy CRC 42E46E7B
Track not present in AccurateRip database
Copy OK

Track 9

Filename C:\biorrrip\Игумен Силуан (Туманов) - Избранные песнопения для однородного хора (2007) [FLAC]\09. 'Покаяния отверзи ми двери', №2.wav

Peak level 79.1 %
Track quality 100.0 %
Test CRC 5C501D79
Copy CRC 5C501D79
Track not present in AccurateRip database
Copy OK

Track 10

Filename C:\biorrrip\Игумен Силуан (Туманов) - Избранные песнопения для однородного хора (2007) [FLAC]\10. 'Крест начертав'.wav

Peak level 77.5 %
Track quality 100.0 %
Test CRC BD30AA48
Copy CRC BD30AA48
Track not present in AccurateRip database
Copy OK

Track 11

Filename C:\biorrrip\Игумен Силуан (Туманов) - Избранные песнопения для однородного хора (2007) [FLAC]\11. Светилен Пасхи.wav

Peak level 88.1 %
Track quality 100.0 %
Test CRC 615194D5
Copy CRC 615194D5
Track not present in AccurateRip database
Copy OK

Track 12

Filename C:\biorrrip\Игумен Силуан (Туманов) - Избранные песнопения для однородного хора (2007) [FLAC]\12. Воскресный тропарь 8 гласа.wav

Peak level 50.7 %
Track quality 99.8 %
Test CRC B6734AB3
Copy CRC B6734AB3
Track not present in AccurateRip database
Copy OK

Track 13

Filename C:\biorrrip\Игумен Силуан (Туманов) - Избранные песнопения для однородного хора (2007) [FLAC]\13. Евхарестический гимн.wav

Peak level 49.2 %
Track quality 100.0 %
Test CRC 8F4B33C5
Copy CRC 8F4B33C5
Track not present in AccurateRip database
Copy OK

Track 14

Filename C:\biorrrip\Игумен Силуан (Туманов) - Избранные песнопения для однородного хора (2007) [FLAC]\14. Гимн любви св. ап. Павла.wav

Peak level 77.4 %
Track quality 100.0 %
Test CRC 838A2CA6
Copy CRC 838A2CA6
Track not present in AccurateRip database
Copy OK

None of the tracks are present in the AccurateRip database

No errors occurred

End of status report
[/pre]
CUE
[pre]
REM GENRE Sacred
REM DATE 2007
REM DISCID BA0C7D0E
REM COMMENT "ExactAudioCopy v0.99pb5"
PERFORMER "Игумен Силуан (Туманов)"
TITLE "Избранные песнопения для однородного хора"
FILE "01. Тропарь Рождества Христова.wav" WAVE
TRACK 01 AUDIO
TITLE "Тропарь Рождества Христова"
PERFORMER "Игумен Силуан (Туманов)"
FLAGS DCP
INDEX 01 00:00:00
FILE "02. 'Свете тихий', №1.wav" WAVE
TRACK 02 AUDIO
TITLE "'Свете тихий', №1"
PERFORMER "Игумен Силуан (Туманов)"
FLAGS DCP
INDEX 01 00:00:00
FILE "03. 'Ныне отпущаеши', №1.wav" WAVE
TRACK 03 AUDIO
TITLE "'Ныне отпущаеши', №1"
PERFORMER "Игумен Силуан (Туманов)"
FLAGS DCP
INDEX 01 00:00:00
FILE "04. Тропарь Пресвятой Троице.wav" WAVE
TRACK 04 AUDIO
TITLE "Тропарь Пресвятой Троице"
PERFORMER "Игумен Силуан (Туманов)"
FLAGS DCP
INDEX 01 00:00:00
FILE "05. 'Хвалите Имя Господне', №2.wav" WAVE
TRACK 05 AUDIO
TITLE "'Хвалите Имя Господне', №2"
PERFORMER "Игумен Силуан (Туманов)"
FLAGS DCP
INDEX 01 00:00:00
FILE "06. 'На реках Вавилонских', №1.wav" WAVE
TRACK 06 AUDIO
TITLE "'На реках Вавилонских', №1"
PERFORMER "Игумен Силуан (Туманов)"
FLAGS DCP
INDEX 01 00:00:00
FILE "07. Тропари по непорочных.wav" WAVE
TRACK 07 AUDIO
TITLE "Тропари по непорочных"
PERFORMER "Игумен Силуан (Туманов)"
FLAGS DCP
INDEX 01 00:00:00
FILE "08. Антифоны степенны 8 гласа.wav" WAVE
TRACK 08 AUDIO
TITLE "Антифоны степенны 8 гласа"
PERFORMER "Игумен Силуан (Туманов)"
FLAGS DCP
INDEX 01 00:00:00
FILE "09. 'Покаяния отверзи ми двери', №2.wav" WAVE
TRACK 09 AUDIO
TITLE "'Покаяния отверзи ми двери', №2"
PERFORMER "Игумен Силуан (Туманов)"
FLAGS DCP
INDEX 01 00:00:00
FILE "10. 'Крест начертав'.wav" WAVE
TRACK 10 AUDIO
TITLE "'Крест начертав'"
PERFORMER "Игумен Силуан (Туманов)"
FLAGS DCP
INDEX 01 00:00:00
FILE "11. Светилен Пасхи.wav" WAVE
TRACK 11 AUDIO
TITLE "Светилен Пасхи"
PERFORMER "Игумен Силуан (Туманов)"
FLAGS DCP
INDEX 01 00:00:00
FILE "12. Воскресный тропарь 8 гласа.wav" WAVE
TRACK 12 AUDIO
TITLE "Воскресный тропарь 8 гласа"
PERFORMER "Игумен Силуан (Туманов)"
FLAGS DCP
INDEX 01 00:00:00
FILE "13. Евхарестический гимн.wav" WAVE
TRACK 13 AUDIO
TITLE "Евхарестический гимн"
PERFORMER "Игумен Силуан (Туманов)"
FLAGS DCP
INDEX 01 00:00:00
FILE "14. Гимн любви св. ап. Павла.wav" WAVE
TRACK 14 AUDIO
TITLE "Гимн любви св. ап. Павла"
PERFORMER "Игумен Силуан (Туманов)"
FLAGS DCP
INDEX 01 00:00:00
[/pre]

.
За предоставленный материал - великое спасибо автору!
Рип саморучный с комапкта из личной коллекции.
Сканы [
300 dpi] в комплекте.
.

eNJ0Y!Machine
Download

Войдите на сайт, чтобы увидеть полную информацию.

Как скачивать  ·   Правила трекера


_________________
pic ~ omnivorous techno_animal
[Профиль]  [ЛС] 

кат-rok

post 13-Янв-2011 02:07 (спустя 5 месяцев 17 дней)

[Цитировать] 

Очень нужна милость мира златоустовское
 

bioann

Стаж: 9 лет 4 месяца

Сообщений: 3

post 17-Авг-2011 06:56 (спустя 7 месяцев)

[Цитировать] 

up! (=

_________________
pic ~ omnivorous techno_animal
[Профиль]  [ЛС] 

gdd

Стаж: 8 лет 2 месяца

Сообщений: 6

post 22-Авг-2011 23:45 (спустя 5 дней)

[Цитировать] 

Спасибо
[Профиль]  [ЛС] 

bioann

Стаж: 9 лет 4 месяца

Сообщений: 3

post 15-Авг-2012 15:44 (спустя 11 месяцев)

[Цитировать] 

вверх

_________________
pic ~ omnivorous techno_animal
[Профиль]  [ЛС] 

Наталья Николаевна

Стаж: 8 лет 11 месяцев

Сообщений: 34

post 18-Авг-2012 12:13 (спустя 2 дня 20 часов)

[Цитировать] 

Спаси Вас Бог!
[Профиль]  [ЛС] 

Арсений Гардаш

Стаж: 1 год 4 месяца

Сообщений: 1

post 11-Сен-2019 00:04 (спустя 7 лет)

[Цитировать] 

Дайте раздачу, пожалуйста
[Профиль]  [ЛС] 
Показать сообщения:    
Ответить на тему

Текущее время: 13-Ноя 23:22

Часовой пояс: GMT + 4



Вы не можете начинать темы
Вы не можете отвечать на сообщения
Вы не можете редактировать свои сообщения
Вы не можете удалять свои сообщения
Вы не можете голосовать в опросах
Вы не можете прикреплять файлы к сообщениям
Вы не можете скачивать файлы