Loading...
Error

(Церковная музыка и церковные хоры (lossless).) Георгий Свиридов. "Песнопения и молитвы". (Для хора без сопровождения). (2CD). - 2008, APE (image + .cue), lossless

Ответить на тему
Статистика раздачи
   
 
Автор Сообщение

СЕРГУЛЕТ

Стаж: 10 лет

Сообщений: 2637

Откуда: LA ROMANA

Dominicanrep

post 06-Ноя-2011 15:52

[Цитировать] 

Георгий Свиридов. "Песнопения и молитвы". (Для хора без сопровождения). (2CD).

pic
Страна: Россия. ООО Фирма грамзаписи "Никитин".
Жанр: Церковная музыка и церковные хоры (lossless).
Год выпуска: 2008
Формат: APE (image + .cue)
Битрейт аудио: lossless
Продолжительность: 00:46:43+00:52:10
Содержание+Обложки
picpicpicpicpic
EAC log
Exact Audio Copy V1.0 beta 2 from 29. April 2011

Отчёт EAC об извлечении, выполненном 6. ноября 2011, 9:08

Unknown Artist / Песнопения и молитвы CD1

Дисковод: ASUS DRW-2014L1T Adapter: 2 ID: 1

Режим чтения : Достоверность
Использование точного потока : Да
Отключение кэша аудио : Да
Использование указателей C2 : Нет

Коррекция смещения при чтении : 6
Способность читать области Lead-in и Lead-out : Нет
Заполнение пропущенных сэмплов тишиной : Да
Удаление блоков с тишиной в начале и конце : Нет
При вычислениях CRC использовались нулевые сэмплы : Да
Интерфейс : Встроенный Win32-интерфейс для Win NT/2000

Выходной формат : Внутренние WAV-операции
Формат сэмплов : 44.100 Гц; 16 бит; стерео

TOC извлечённого CD

Трек | Старт | Длительность | Начальный сектор | Конечный сектор
---------------------------------------------------------------------
1 | 0:00.00 | 0:54.10 | 0 | 4059
2 | 0:54.10 | 1:22.02 | 4060 | 10211
3 | 2:16.12 | 5:34.73 | 10212 | 35334
4 | 7:51.10 | 2:27.00 | 35335 | 46359
5 | 10:18.10 | 1:50.00 | 46360 | 54609
6 | 12:08.10 | 3:46.00 | 54610 | 71559
7 | 15:54.10 | 2:22.28 | 71560 | 82237
8 | 18:16.38 | 0:45.72 | 82238 | 85684
9 | 19:02.35 | 3:19.12 | 85685 | 100621
10 | 22:21.47 | 1:55.38 | 100622 | 109284
11 | 24:17.10 | 3:36.00 | 109285 | 125484
12 | 27:53.10 | 0:46.00 | 125485 | 128934
13 | 28:39.10 | 1:18.38 | 128935 | 134822
14 | 29:57.48 | 2:52.37 | 134823 | 147759
15 | 32:50.10 | 0:49.38 | 147760 | 151472
16 | 33:39.48 | 3:32.37 | 151473 | 167409
17 | 37:12.10 | 1:07.00 | 167410 | 172434
18 | 38:19.10 | 3:01.38 | 172435 | 186047
19 | 41:20.48 | 5:22.32 | 186048 | 210229

Характеристики диапазона извлечения и сообщения об ошибках

Выбранный диапазон

Имя файла C:\Unknown Artist - Песнопения и молитвы CD1.wav

Пиковый уровень 94.2 %
Скорость извлечения 7.5 X
Качество диапазона 99.9 %
CRC копии 4D4D078B
Копирование... OK

Ошибок не произошло

Конец отчёта

==== Контрольная сумма отчёта 6963A9D62B01C0F8EE225406CC47E468A116A3ACCDA93B63629471340D6C2FCA ====

cd2.
Exact Audio Copy V1.0 beta 2 from 29. April 2011

Отчёт EAC об извлечении, выполненном 6. ноября 2011, 9:17

Unknown Artist / Песнопения и молитвы CD2

Дисковод: ASUS DRW-2014L1T Adapter: 2 ID: 1

Режим чтения : Достоверность
Использование точного потока : Да
Отключение кэша аудио : Да
Использование указателей C2 : Нет

Коррекция смещения при чтении : 6
Способность читать области Lead-in и Lead-out : Нет
Заполнение пропущенных сэмплов тишиной : Да
Удаление блоков с тишиной в начале и конце : Нет
При вычислениях CRC использовались нулевые сэмплы : Да
Интерфейс : Встроенный Win32-интерфейс для Win NT/2000

Выходной формат : Внутренние WAV-операции
Формат сэмплов : 44.100 Гц; 16 бит; стерео

TOC извлечённого CD

Трек | Старт | Длительность | Начальный сектор | Конечный сектор
---------------------------------------------------------------------
1 | 0:00.00 | 0:46.10 | 0 | 3459
2 | 0:46.10 | 3:09.00 | 3460 | 17634
3 | 3:55.10 | 3:47.00 | 17635 | 34659
4 | 7:42.10 | 5:15.28 | 34660 | 58312
5 | 12:57.38 | 0:51.47 | 58313 | 62184
6 | 13:49.10 | 2:58.00 | 62185 | 75534
7 | 16:47.10 | 4:14.00 | 75535 | 94584
8 | 21:01.10 | 2:58.37 | 94585 | 107971
9 | 23:59.47 | 3:38.00 | 107972 | 124321
10 | 27:37.47 | 4:16.01 | 124322 | 143522
11 | 31:53.48 | 2:54.37 | 143523 | 156609
12 | 34:48.10 | 0:51.38 | 156610 | 160472
13 | 35:39.48 | 4:50.00 | 160473 | 182222
14 | 40:29.48 | 6:31.64 | 182223 | 211611
15 | 47:01.37 | 3:00.38 | 211612 | 225149
16 | 50:02.00 | 2:08.30 | 225150 | 234779

Характеристики диапазона извлечения и сообщения об ошибках

Выбранный диапазон

Имя файла C:\Unknown Artist - Песнопения и молитвы CD2.wav

Пиковый уровень 93.0 %
Скорость извлечения 7.7 X
Качество диапазона 99.9 %
CRC копии EBD2CEBB
Копирование... OK

Ошибок не произошло

Конец отчёта

==== Контрольная сумма отчёта EA49489384980F66E7C7B42D76550F625F08B8B8BB686DCEDD90985975FB4F1F ====
Download

Войдите на сайт, чтобы увидеть полную информацию.

Как скачивать  ·   Правила трекера

[Профиль]  [ЛС] 

Damian

Стаж: 9 лет

Сообщений: 1830

Откуда: Донбасс

Russia

post 06-Ноя-2011 20:59 (спустя 5 часов)

[Цитировать] 

Брат,да спаси тебя Господи за эту раздачу.
Силище!!!

_________________
Помолимся!
[Профиль]  [ЛС] 

Damian

Стаж: 9 лет

Сообщений: 1830

Откуда: Донбасс

Russia

post 13-Ноя-2011 22:55 (спустя 7 дней)

[Цитировать] 

Порежьте кто нибудь на треки,очень надо

_________________
Помолимся!
[Профиль]  [ЛС] 

rotom

Стаж: 5 лет 8 месяцев

Сообщений: 1

post 22-Янв-2014 11:34 (спустя 2 года 2 месяца)

[Цитировать] 

Спасибо большое! Давно искал.
[Профиль]  [ЛС] 

basicman

Стаж: 7 лет 3 месяца

Сообщений: 8

post 29-Авг-2019 09:11 (спустя 5 лет 7 месяцев)

[Цитировать] 

Очень хочется скачать, но никто не раздаёт
[Профиль]  [ЛС] 

basicman

Стаж: 7 лет 3 месяца

Сообщений: 8

post 30-Авг-2019 09:49 (спустя 1 день)

[Цитировать] 

Спасибо
[Профиль]  [ЛС] 
Показать сообщения:    
Ответить на тему

Текущее время: 14-Окт 00:28

Часовой пояс: GMT + 4



Вы не можете начинать темы
Вы не можете отвечать на сообщения
Вы не можете редактировать свои сообщения
Вы не можете удалять свои сообщения
Вы не можете голосовать в опросах
Вы не можете прикреплять файлы к сообщениям
Вы не можете скачивать файлы