Loading...
Error

Пасха Христова. Прямая трансляция Пасхального богослужения из Храма Христа Спасителя (Эфир от 07.04.2018) [2018, Документальный, HDTV 1080i]

Ответить на тему
Статистика раздачи
   
 
Автор Сообщение

vladimirkiev

Стаж: 1 год 2 месяца

Сообщений: 5

Russia

post 08-Апр-2018 15:10

[Цитировать] 

pic
Название: Пасха Христова. Прямая трансляция Пасхального богослужения из Храма Христа Спасителя (Эфир от 07.04.2018)
Телекомпания: Россия 1 HD, ЗАО «Информационное агентство Русской Православной Церкви»
Жанр: Документальный

Описание:
В Светлую Пасхальную ночь с 7 на 8 апреля 2018 года Святейший Патриарх Московский и всея Руси Кирилл совершил крестный ход, пасхальную заутреню и Божественную литургию в кафедральном соборном Храме Христа Спасителя в Москве.
В храм на пасхальное богослужение приехал национальный лидер Владимир Путин.
В своем обращении к верующим патриарх Московский и всея Руси Кирилл призвал всех внимательно прочесть Евангелие.
«Постарайтесь всмотреться в образ Спасителя. Не сомневаюсь, что вы по-новому взглянете не только на самих себя, но и на окружающий мир. И ваше сердце исполнится той же радости, которую испытали некогда ученики, увидевшие Воскресшего Учителя», - сказал патриарх.
К пасхальной службе из храма Гроба Господня в Иерусалиме был доставлен Благодатный огонь.
Комментирует Николай Державин.

Продолжительность: 02:42:11
Качество видео: HDTV 1080i
Субтитры: отсутствуют
Семпл

Видео: AVC/H.264, 1920x1080 (16:9), ~11.9 Mbps
Аудио: AAC, 2 ch, 446 Kbps
Mediainfo
[pre]
General
Unique ID : 192049559527820177249107519598642159514 (0x907B665605C97254F12E790324595F9A)
Complete name : D:\Пасха Христова. Прямая трансляция Пасхального богослужения из Храма Христа Спасителя 2018.mkv
Format : Matroska
Format version : Version 4 / Version 2
File size : 14.0 GiB
Duration : 2 h 42 min
Overall bit rate : 12.4 Mb/s
Encoded date : UTC 2018-04-08 05:25:36
Writing application : mkvmerge v22.0.0 ('At The End Of The World') 64-bit
Writing library : libebml v1.3.5 + libmatroska v1.4.8
Cover : Yes
Attachments : cover.png

Video
ID : 1
Format : AVC
Format/Info : Advanced Video Codec
Format profile : High@L4
Format settings : CABAC / 4 Ref Frames
Format settings, CABAC : Yes
Format settings, ReFrames : 4 frames
Codec ID : V_MPEG4/ISO/AVC
Duration : 2 h 42 min
Bit rate : 11.9 Mb/s
Width : 1 920 pixels
Height : 1 080 pixels
Display aspect ratio : 16:9
Frame rate mode : Constant
Frame rate : 25.000 FPS
Standard : Component
Color space : YUV
Chroma subsampling : 4:2:0
Bit depth : 8 bits
Scan type : Interlaced
Scan type, store method : Separated fields
Scan order : Top Field First
Bits/(Pixel*Frame) : 0.230
Stream size : 13.5 GiB (96%)
Language : Russian
Default : No
Forced : No
Color range : Limited
Color primaries : BT.709
Transfer characteristics : BT.709
Matrix coefficients : BT.709

Audio
ID : 2
Format : AAC
Format/Info : Advanced Audio Codec
Format profile : LC
Codec ID : A_AAC-2
Duration : 2 h 42 min
Bit rate : 446 kb/s
Channel(s) : 2 channels
Channel positions : Front: L R
Sampling rate : 44.1 kHz
Frame rate : 43.066 FPS (1024 SPF)
Compression mode : Lossy
Stream size : 517 MiB (4%)
Language : Russian
Default : Yes
Forced : No
[/pre]
Скриншоты
pic pic pic pic

pic pic pic pic

pic pic pic pic

pic pic pic pic

pic pic pic pic

pic pic pic pic

pic pic pic pic

pic pic pic pic
Download

Войдите на сайт, чтобы увидеть полную информацию.

Как скачивать  ·   Правила трекера

[Профиль]  [ЛС] 
Показать сообщения:    
Ответить на тему

Текущее время: 24-Сен 07:43

Часовой пояс: GMT + 4



Вы не можете начинать темы
Вы не можете отвечать на сообщения
Вы не можете редактировать свои сообщения
Вы не можете удалять свои сообщения
Вы не можете голосовать в опросах
Вы не можете прикреплять файлы к сообщениям
Вы не можете скачивать файлы