Loading...
Error

(Церковная музыка и церковные хоры (lossless)) Ансамбль "Сирин". "Spiritual Chants of the Russian People". "Духовные пнснопения русского народа". - 1993, FLAC (tracks), lossless

Ответить на тему
Статистика раздачи
   
 
Автор Сообщение

СЕРГУЛЕТ

Стаж: 9 лет 10 месяцев

Сообщений: 2637

Откуда: LA ROMANA

Dominicanrep

post 10-Окт-2011 20:59

[Цитировать] 

Ансамбль "Сирин". "Spiritual Chants of the Russian People". "Духовные пнснопения русского народа".

pic
Страна: Германия.
Жанр: Церковная музыка и церковные хоры (lossless)
Год выпуска: 1993
Формат: FLAC (tracks)
Битрейт аудио: lossless
Продолжительность: 01:03:52
Трэклист:
1. Sticheron to Boris and Gleb (Стихира праздника свв. Бориса и Глеба: знаменный распев)
2. Open unto me the gates of repentance (Покаяния отверзи ми двери: болгарский распев)
3. Trisagion (Трисвятое: демественный трехголосный распев)
4. Magnificat ("Величит душа Моя Господа". Песнь Богородицы)
5. Today, the Blessing of the Holy Ghost (Днесь благодать Святаго Духа нас собра: демественный трехголосный распев)
6. This day, Christ is born in Bethleem (Днесь Христос в Вифлееме раждается: демественный трехголосный распев)
7. Ave Maria (Богородице Дево, радуйся: распев московского Воскресенского монастыря, XIX в.)
8. Glorification of the Nativity of the Blessed Virgin (Величание праздника Рождества Пресвятой Богородицы: знаменный распев)
9. Glorification of the Nativity of Christ (Величание праздника Рождества Христова: демественный трехголосный распев)
10. Long Life to Tsar Peter I (Многая лета царю Петру I: демественный четырехголосный распев)
11. Sticheron I (Утренняя стихира I, воскресная евангельская)
12. Praise the Lord (Хвалите Господа с небес, пс. 148: старообрядческий распев)
13. Lamentation of Joseph (Плач Иосифа: Брянская область)
14. Chant about the separation of the soul from the body (Песнь на разлучение души от тела: Смоленская область)
15. The prodigal son (Притча о блудном сыне: Брянская область)
16. Woe is me (О горе мне: старообрядческий распев, Алтайский край)
17. Commemoration chant (Песнь поминовения усопших)
18. The Passion of Christ (Страдание Христа)
19. Bless me, Lord (Благослови мне, Боже: центральная Россия, конец XIX в.)
20. For the Descent of the Holy Ghost (На схождение Святаго Духа: партесный распев, взято из украинских сборников "Богогласников")
21. To the Mother of God (Матери Божией: партесный распев, взято из украинских сборников "Богогласников")
22. To Saint George martyr (Святому великомученику Георгию: партесный распев, взято из украинских сборников "Богогласников")
23. My sinful soul (Душа моя прегрешная: песнь староверов, Пермская область)
24. Glorification of Christ I (Прославление Христа I: рождественская колядка, юг России)
25. Glorification of Christ II (Прославление Христа II: рождественская колядка, юг России)
Дополнительная информация: Ансамбль древнерусской духовной музыки «Сирин» был создан в октябре 1989 года Андреем Котовым – певцом, хормейстером и фольклористом, долгие годы занимавшимся изучением особенностей аутентичного пения русской средневековой музыки и народных песен, - и группой профессиональных музыкантов, объединившихся ради возрождения древних певческих традиций. Название ансамбля произошло от имени райской певчей птицы, что поет «неизреченные песни о спасшихся душах». Репертуар ансамбля включает знаменный, путевой, демественный, киевский, болгарский, греческий, а также различные монастырские распевы, ранние формы русской полифонии, ранний русский партес. Уникальное направление деятельности ансамбля – собирание, изучение и исполнение духовных стихов, самобытного жанра народного творчества, доносящего из глубины веков миропонимание русского народа. Выступления "Сирина" с успехом проходили в России и многих европейских странах. «Сирин» представлял Россию на Первом Европейском симпозиуме хоровой музыки в Любляне (1995), Всемирном симпозиуме хоровой музыки в Роттердаме (1999), участвовал в официальной программе празднования 2000-летия христианства в Иерусалиме и Вифлееме. Компакт-диски ансамбля «Сирин» были отмечены французскими наградами «Золотой Диапазон» и «Фортиссимо Телерама». Уникальные исполнительские качества привлекают к ансамблю внимание современных композиторов. Специально для "Сирина" композитор Владимир Мартынов положил на музыку библейскую книгу "Плач пророка Иеремии". Сценическая версия этого произведения (все роли исполнены певцами ансамбля "Сирин") получила приз "Золотая Маска" как лучший спектакль года и выдержала болee 150 представлений в России и за рубежом.
EAC log
Exact Audio Copy V0.99 prebeta 4 from 23. January 2008
EAC extraction logfile from 25. January 2009, 6:36
The Sirin Choir / Духовные песнопения русского народа
Used drive : MATSHITADVD-RAM UJ-841S Adapter: 1 ID: 0
Read mode : Secure
Utilize accurate stream : Yes
Defeat audio cache : Yes
Make use of C2 pointers : No
Read offset correction : 102
Overread into Lead-In and Lead-Out : No
Fill up missing offset samples with silence : Yes
Delete leading and trailing silent blocks : No
Null samples used in CRC calculations : No
Used interface : Native Win32 interface for Win NT & 2000
Gap handling : Appended to previous track
Used output format : User Defined Encoder
Selected bitrate : 768 kBit/s
Quality : High
Add ID3 tag : No
Command line compressor : C:\Program Files\Exact Audio Copy\FLAC\FLAC.EXE
Additional command line options : -8 -V -T "ARTIST=%a" -T "TITLE=%t" -T "ALBUM=%g" -T "DATE=%y" -T "TRACKNUMBER=%n" -T "GENRE=%m" -T "COMMENT=EAC FLAC -8" %s -o %d
TOC of the extracted CD
Track | Start | Length | Start sector | End sector
---------------------------------------------------------
1 | 0:00.32 | 1:30.15 | 32 | 6796
2 | 1:30.47 | 1:35.70 | 6797 | 13991
3 | 3:06.42 | 2:16.55 | 13992 | 24246
4 | 5:23.22 | 1:13.28 | 24247 | 29749
5 | 6:36.50 | 2:40.72 | 29750 | 41821
6 | 9:17.47 | 5:08.05 | 41822 | 64926
7 | 14:25.52 | 0:51.03 | 64927 | 68754
8 | 15:16.55 | 0:52.55 | 68755 | 72709
9 | 16:09.35 | 1:51.72 | 72710 | 81106
10 | 18:01.32 | 1:49.10 | 81107 | 89291
11 | 19:50.42 | 2:22.50 | 89292 | 99991
12 | 22:13.17 | 2:25.38 | 99992 | 110904
13 | 24:38.55 | 4:02.10 | 110905 | 129064
14 | 28:40.65 | 3:19.45 | 129065 | 144034
15 | 32:00.35 | 4:06.47 | 144035 | 162531
16 | 36:07.07 | 1:50.35 | 162532 | 170816
17 | 37:57.42 | 1:21.25 | 170817 | 176916
18 | 39:18.67 | 3:33.15 | 176917 | 192906
19 | 42:52.07 | 5:10.15 | 192907 | 216171
20 | 48:02.22 | 3:29.03 | 216172 | 231849
21 | 51:31.25 | 1:51.12 | 231850 | 240186
22 | 53:22.37 | 2:14.03 | 240187 | 250239
23 | 55:36.40 | 4:22.07 | 250240 | 269896
24 | 59:58.47 | 2:20.73 | 269897 | 280469
25 | 62:19.45 | 2:10.25 | 280470 | 290244
Track 1
Filename C:\Моя музыка\01.wav
Pre-gap length 0:00:02.32
Peak level 73.6 %
Track quality 100.0 %
Test CRC F8EE9DC8
Copy CRC F8EE9DC8
Copy OK
Track 2
Filename C:\Моя музыка\02.wav
Pre-gap length 0:00:02.70
Peak level 19.8 %
Track quality 100.0 %
Test CRC 1CA84130
Copy CRC 1CA84130
Copy OK
Track 3
Filename C:\Моя музыка\03.wav
Pre-gap length 0:00:03.17
Peak level 55.0 %
Track quality 100.0 %
Test CRC 15BE2D9E
Copy CRC 15BE2D9E
Copy OK
Track 4
Filename C:\Моя музыка\04.wav
Pre-gap length 0:00:02.67
Peak level 41.1 %
Track quality 99.8 %
Test CRC 8BA7FF0D
Copy CRC 8BA7FF0D
Copy OK
Track 5
Filename C:\Моя музыка\05.wav
Pre-gap length 0:00:02.33
Peak level 47.8 %
Track quality 100.0 %
Test CRC 5A91D3E9
Copy CRC 5A91D3E9
Copy OK
Track 6
Filename C:\Моя музыка\06.wav
Pre-gap length 0:00:03.32
Peak level 49.4 %
Track quality 100.0 %
Test CRC 3E72F7F8
Copy CRC 3E72F7F8
Copy OK
Track 7
Filename C:\Моя музыка\07.wav
Pre-gap length 0:00:03.27
Peak level 27.9 %
Track quality 100.0 %
Test CRC F6CF55CD
Copy CRC F6CF55CD
Copy OK
Track 8
Filename C:\Моя музыка\08.wav
Pre-gap length 0:00:02.28
Peak level 44.7 %
Track quality 100.0 %
Test CRC 93EB135E
Copy CRC 93EB135E
Copy OK
Track 9
Filename C:\Моя музыка\09.wav
Pre-gap length 0:00:02.60
Peak level 48.1 %
Track quality 100.0 %
Test CRC 50FB0AE1
Copy CRC 50FB0AE1
Copy OK
Track 10
Filename C:\Моя музыка\10.wav
Pre-gap length 0:00:02.67
Peak level 60.6 %
Track quality 100.0 %
Test CRC B804699A
Copy CRC B804699A
Copy OK
Track 11
Filename C:\Моя музыка\11.wav
Pre-gap length 0:00:02.35
Peak level 34.3 %
Track quality 100.0 %
Test CRC 55509B7E
Copy CRC 55509B7E
Copy OK
Track 12
Filename C:\Моя музыка\12.wav
Pre-gap length 0:00:03.22
Peak level 79.9 %
Track quality 100.0 %
Test CRC 95255CE4
Copy CRC 95255CE4
Copy OK
Track 13
Filename C:\Моя музыка\13.wav
Pre-gap length 0:00:02.68
Peak level 26.9 %
Track quality 100.0 %
Test CRC BA36779A
Copy CRC BA36779A
Copy OK
Track 14
Filename C:\Моя музыка\14.wav
Pre-gap length 0:01:59.19
Peak level 30.5 %
Track quality 100.0 %
Test CRC E571FFDC
Copy CRC E571FFDC
Copy OK
Track 15
Filename C:\Моя музыка\15.wav
Pre-gap length 0:00:02.55
Peak level 43.4 %
Track quality 100.0 %
Test CRC 4C1863C3
Copy CRC 4C1863C3
Copy OK
Track 16
Filename C:\Моя музыка\16.wav
Pre-gap length 0:00:02.62
Peak level 31.1 %
Track quality 100.0 %
Test CRC BF030312
Copy CRC BF030312
Copy OK
Track 17
Filename C:\Моя музыка\17.wav
Pre-gap length 0:00:03.05
Peak level 17.2 %
Track quality 99.8 %
Test CRC 08A990B6
Copy CRC 08A990B6
Copy OK
Track 18
Filename C:\Моя музыка\18.wav
Pre-gap length 0:00:02.27
Peak level 33.4 %
Track quality 99.9 %
Test CRC 04F4681A
Copy CRC 04F4681A
Copy OK
Track 19
Filename C:\Моя музыка\19.wav
Pre-gap length 0:00:03.25
Peak level 40.0 %
Track quality 100.0 %
Test CRC 40E14917
Copy CRC 40E14917
Copy OK
Track 20
Filename C:\Моя музыка\20.wav
Pre-gap length 0:00:03.10
Peak level 39.2 %
Track quality 100.0 %
Test CRC A00EABD4
Copy CRC A00EABD4
Copy OK
Track 21
Filename C:\Моя музыка\21.wav
Pre-gap length 0:00:02.23
Peak level 52.2 %
Track quality 100.0 %
Test CRC F21E106D
Copy CRC F21E106D
Copy OK
Track 22
Filename C:\Моя музыка\22.wav
Pre-gap length 0:00:03.52
Peak level 27.1 %
Track quality 100.0 %
Test CRC DEAB3FBE
Copy CRC DEAB3FBE
Copy OK
Track 23
Filename C:\Моя музыка\23.wav
Pre-gap length 0:00:02.68
Peak level 21.4 %
Track quality 100.0 %
Test CRC 7C093332
Copy CRC 7C093332
Copy OK
Track 24
Filename C:\Моя музыка\24.wav
Pre-gap length 0:00:03.70
Peak level 91.3 %
Track quality 100.0 %
Test CRC B217B6E3
Copy CRC B217B6E3
Copy OK
Track 25
Filename C:\Моя музыка\25.wav
Pre-gap length 0:00:03.48
Peak level 86.7 %
Track quality 100.0 %
Test CRC 8529BF52
Copy CRC 8529BF52
Copy OK
No errors occurred
End of status report
Отсканированные обложки лежат в раздаче.
Download

Войдите на сайт, чтобы увидеть полную информацию.

Как скачивать  ·   Правила трекера

[Профиль]  [ЛС] 

КукА

Стаж: 9 лет 8 месяцев

Сообщений: 545

Откуда: Одесса

Ukraine

post 10-Окт-2011 21:40 (спустя 40 минут)

[Цитировать] 

Спасибо!
[Профиль]  [ЛС] 

радужноенебо

Стаж: 6 лет 7 месяцев

Сообщений: 5

Russia

post 07-Фев-2018 14:36 (спустя 6 лет 3 месяца)

[Цитировать] 

Кто может. Станьте пожалуйста на раздачу.
[Профиль]  [ЛС] 

александрр1977

Стаж: 7 лет

Сообщений: 87

Russia

post 19-Мар-2018 21:03 (спустя 1 месяц 12 дней)

[Цитировать] 

спасибо!
[Профиль]  [ЛС] 

mangealic

Стаж: 4 года 4 месяца

Сообщений: 76

post 22-Мар-2018 12:19 (спустя 2 дня 15 часов)

[Цитировать] 

Спасибо!
[Профиль]  [ЛС] 
Показать сообщения:    
Ответить на тему

Текущее время: 16-Дек 17:53

Часовой пояс: GMT + 4



Вы не можете начинать темы
Вы не можете отвечать на сообщения
Вы не можете редактировать свои сообщения
Вы не можете удалять свои сообщения
Вы не можете голосовать в опросах
Вы не можете прикреплять файлы к сообщениям
Вы не можете скачивать файлы