Loading...
Error

(Церковная музыка и церковные хоры (lossless)) Страстная Седмица - «ДА МОЛЧИТ ВСЯКАЯ ПЛОТЬ ЧЕЛОВЕЧА...» - 2005, FLAC (tracks + cue), lossless

Ответить на тему
Статистика раздачи
   
 
Автор Сообщение

rtrtrtrtmailru

Стаж: 8 лет 4 месяца

Сообщений: 3

Russia

post 11-Апр-2011 11:20

[Цитировать] 

Страстная Седмица - «Да молчит всякая плоть человеча...»
ПЕСНОПЕНИЯ СТРАСТНОЙ СЕДМИЦЫ В ДАНИЛОВОМ МОНАСТЫРЕ


pic
Страна: Россия
Жанр: Церковная музыка и церковные хоры (lossless).
Год выпуска: 2005
Формат: FLAC (tracks + cue)
Битрейт аудио: lossless
Продолжительность: 74:09

Описание: Страстная (Великая) Седмица отличается особо торжественным и скорбным чином церковного богослужения, - ведь в это время вспоминается великая Голгофская Жертва Спасителя за весь род человеческий. Представленные на этом диске песнопения относятся к трём вершинным дням Страстной Седмицы. В Великий Четверг отмечается установление Самим Господом Таинства Евхаристии (причащения) на Тайной Вечери, Его последней трапезе с апостолами. В Страстную Пятницу, во время чтения Двенадцати Евангелий и выносе Плащаницы, мы переживаем вместе со Христом Страсти (страдания) Господни. В Великую Субботу вспоминается погребение Христа, но в этой великой скорби предощущается торжество Христова Воскресения и победы над смертью...


Исполнители:
Лауреат международного конкурса Праздничный хор
Данилова ставропигиального мужского монастыря г. Москвы
Регент - Георгий Сафонов

Солисты:
Архимандрит Лука (Пинаев) (1, 3, 5)
Архидиакон Герман (Дубов) (1-3. 6)
Владислав Косарев, баритон (18)

Трэклист:
  1. Мирная ектения (гарм. Н.И. Озерова)
  2. «Егда славнии ученицы...» (Киевского распева, гарм. архимандрита Матфея (Мормыля)
  3. Евангелие от Иоанна, 19:37, зач.61
  4. «Князи людстии...»(Знам. распева)
  5. «Днесь висит на Древе...»(гарм. С.З. Трубачёва)
  6. «Разделиша ризы Моя себе...»
  7. «Совлекоша с Мене ризы Моя...» (гарм. С.З. Трубачёва)
  8. «Плещи Моя дах на раны...» (гарм. С.З. Трубачёва)
  9. «Свете Тихий...» (напев Валаамского монастыря)
  10. «Тебе одеющагося...» (распев Супрасльского монастыря, расшифровка А.В. Конотопа)
  11. «Благословен еси, Господи...»
      (Московского напева, гарм. архимандрита Матфея(Мормыля)
  12. «Ангельский собор удивися...» (Знаменного распева, гарм. П.Г. Чеснокова)
      Ирмосы канона «Волною морскою», глас 6
      (Московского напева, гарм. архимандрита Матфея (Мормыля)
  13.   - песнь 1 «Волною морскою...»
  14.   - песнь 3 «Ят бысть...»
  15.   - песнь 8 «Ужаснися бояйся небо...»
  16.   - песнь 9 «Не рыдай Мене Мати...»
  17. «Да молчит всякая плоть человеча...» (Болгарского распева, гарм. Е.С. Азеева)
  18. «Воскресни Боже...» (Болгарского распева)
  19. Многолетствование(гарм. архим. Матфея (Мормыля)
Log file
Exact Audio Copy V1.0 beta 1 from 15. November 2010

EAC extraction logfile from 10. April 2011, 20:18

«ДА МОЛЧИТ ВСЯКАЯ ПЛОТЬ ЧЕЛОВЕЧА...» / Страстная Седмица

Used drive : TEAC DV-W516GD Adapter: 0 ID: 1

Read mode : Secure
Utilize accurate stream : Yes
Defeat audio cache : Yes
Make use of C2 pointers : No

Read offset correction : 6
Overread into Lead-In and Lead-Out : No
Fill up missing offset samples with silence : Yes
Delete leading and trailing silent blocks : No
Null samples used in CRC calculations : No
Used interface : Native Win32 interface for Win NT & 2000
Gap handling : Appended to previous track

Used output format : User Defined Encoder
Selected bitrate : 768 kBit/s
Quality : High
Add ID3 tag : No
Command line compressor : C:\Program Files\Exact Audio Copy\FLAC\FLAC.EXE
Additional command line options : -6 -V -T "ARTIST=%a" -T "TITLE=%t" -T "ALBUM=%g" -T "DATE=%y" -T "TRACKNUMBER=%n" -T "GENRE=%m" -T "COMMENT=%e" %j--picture="%i"%j %s -o %d

TOC of the extracted CD

Track | Start | Length | Start sector | End sector
---------------------------------------------------------
1 | 0:00.00 | 5:37.55 | 0 | 25329
2 | 5:37.55 | 4:35.19 | 25330 | 45973
3 | 10:12.74 | 4:32.04 | 45974 | 66377
4 | 14:45.03 | 4:54.03 | 66378 | 88430
5 | 19:39.06 | 7:20.05 | 88431 | 121435
6 | 26:59.11 | 2:52.59 | 121436 | 134394
7 | 29:51.70 | 2:02.41 | 134395 | 143585
8 | 31:54.36 | 1:30.20 | 143586 | 150355
9 | 33:24.56 | 3:10.18 | 150356 | 164623
10 | 36:34.74 | 10:12.41 | 164624 | 210564
11 | 46:47.40 | 5:36.29 | 210565 | 235793
12 | 52:23.69 | 6:21.10 | 235794 | 264378
13 | 58:45.04 | 0:49.46 | 264379 | 268099
14 | 59:34.50 | 1:02.07 | 268100 | 272756
15 | 60:36.57 | 1:02.29 | 272757 | 277435
16 | 61:39.11 | 1:16.62 | 277436 | 283197
17 | 62:55.73 | 5:40.34 | 283198 | 308731
18 | 68:36.32 | 4:19.63 | 308732 | 328219
19 | 72:56.20 | 1:12.68 | 328220 | 333687

Track 1

Filename D:\rtrtrtrt\Страстная Седмица - «ДА МОЛЧИТ ВСЯКАЯ ПЛОТЬ ЧЕЛОВЕЧА...»\01 - Мирная ектения (гарм. Н.И. Озерова).wav

Pre-gap length 0:00:02.00

Peak level 72.8 %
Extraction speed 2.2 X
Track quality 100.0 %
Test CRC 22ADA569
Copy CRC 22ADA569
Track not present in AccurateRip database
Copy OK

Track 2

Filename D:\rtrtrtrt\Страстная Седмица - «ДА МОЛЧИТ ВСЯКАЯ ПЛОТЬ ЧЕЛОВЕЧА...»\02 - «Егда славнии ученицы...» (Киевского распева, гарм. архимандрита Матфея (Мормыля).wav

Peak level 63.4 %
Extraction speed 1.6 X
Track quality 99.9 %
Test CRC ED450CF7
Copy CRC ED450CF7
Track not present in AccurateRip database
Copy OK

Track 3

Filename D:\rtrtrtrt\Страстная Седмица - «ДА МОЛЧИТ ВСЯКАЯ ПЛОТЬ ЧЕЛОВЕЧА...»\03 - Евангелие от Иоанна, 19-37, зач.61.wav

Peak level 92.1 %
Extraction speed 2.2 X
Track quality 100.0 %
Test CRC 5154B5B3
Copy CRC 5154B5B3
Track not present in AccurateRip database
Copy OK

Track 4

Filename D:\rtrtrtrt\Страстная Седмица - «ДА МОЛЧИТ ВСЯКАЯ ПЛОТЬ ЧЕЛОВЕЧА...»\04 - «Князи людстии...» (Знам. распева).wav

Peak level 69.6 %
Extraction speed 2.2 X
Track quality 100.0 %
Test CRC E00FBFD1
Copy CRC E00FBFD1
Track not present in AccurateRip database
Copy OK

Track 5

Filename D:\rtrtrtrt\Страстная Седмица - «ДА МОЛЧИТ ВСЯКАЯ ПЛОТЬ ЧЕЛОВЕЧА...»\05 - «Днесь висит на Древе...» (гарм. С.З. Трубачёва).wav

Pre-gap length 0:00:02.00

Peak level 78.3 %
Extraction speed 2.3 X
Track quality 100.0 %
Test CRC 2642B788
Copy CRC 2642B788
Track not present in AccurateRip database
Copy OK

Track 6

Filename D:\rtrtrtrt\Страстная Седмица - «ДА МОЛЧИТ ВСЯКАЯ ПЛОТЬ ЧЕЛОВЕЧА...»\06 - «Разделиша ризы Моя себе...».wav

Peak level 90.0 %
Extraction speed 2.0 X
Track quality 100.0 %
Test CRC C2162DB9
Copy CRC C2162DB9
Track not present in AccurateRip database
Copy OK

Track 7

Filename D:\rtrtrtrt\Страстная Седмица - «ДА МОЛЧИТ ВСЯКАЯ ПЛОТЬ ЧЕЛОВЕЧА...»\07 - «Совлекоша с Мене ризы Моя...» (гарм. С.З. Трубачёва).wav

Pre-gap length 0:00:00.66

Peak level 76.0 %
Extraction speed 1.1 X
Track quality 99.9 %
Test CRC 29038989
Copy CRC 29038989
Track not present in AccurateRip database
Copy OK

Track 8

Filename D:\rtrtrtrt\Страстная Седмица - «ДА МОЛЧИТ ВСЯКАЯ ПЛОТЬ ЧЕЛОВЕЧА...»\08 - «Плещи Моя дах на раны...» (гарм. С.З. Трубачёва).wav

Pre-gap length 0:00:00.36

Peak level 84.2 %
Extraction speed 1.7 X
Track quality 100.0 %
Test CRC 63012CF4
Copy CRC 63012CF4
Track not present in AccurateRip database
Copy OK

Track 9

Filename D:\rtrtrtrt\Страстная Седмица - «ДА МОЛЧИТ ВСЯКАЯ ПЛОТЬ ЧЕЛОВЕЧА...»\09 - «Свете Тихий...» (напев Валаамского монастыря).wav

Peak level 72.8 %
Extraction speed 1.4 X
Track quality 99.9 %
Test CRC 0E3232CF
Copy CRC 0E3232CF
Track not present in AccurateRip database
Copy OK

Track 10

Filename D:\rtrtrtrt\Страстная Седмица - «ДА МОЛЧИТ ВСЯКАЯ ПЛОТЬ ЧЕЛОВЕЧА...»\10 - «Тебе одеющагося...» (распев Супрасльского монастыря, расшифровка А.В. Конотопа).wav

Pre-gap length 0:00:00.74

Peak level 68.3 %
Extraction speed 2.3 X
Track quality 100.0 %
Test CRC 8BE7023C
Copy CRC 8BE7023C
Track not present in AccurateRip database
Copy OK

Track 11

Filename D:\rtrtrtrt\Страстная Седмица - «ДА МОЛЧИТ ВСЯКАЯ ПЛОТЬ ЧЕЛОВЕЧА...»\11 - «Благословен еси, Господи...» (Московского напева, гарм. архимандрита Матфея(Мормыля).wav

Peak level 59.2 %
Extraction speed 1.7 X
Track quality 99.9 %
Test CRC C9B09D38
Copy CRC C9B09D38
Track not present in AccurateRip database
Copy OK

Track 12

Filename D:\rtrtrtrt\Страстная Седмица - «ДА МОЛЧИТ ВСЯКАЯ ПЛОТЬ ЧЕЛОВЕЧА...»\12 - «Ангельский собор удивися...» (Знаменного распева, гарм. П.Г. Чеснокова).wav

Pre-gap length 0:00:00.67

Peak level 83.2 %
Extraction speed 2.3 X
Track quality 100.0 %
Test CRC 40947899
Copy CRC 40947899
Track not present in AccurateRip database
Copy OK

Track 13

Filename D:\rtrtrtrt\Страстная Седмица - «ДА МОЛЧИТ ВСЯКАЯ ПЛОТЬ ЧЕЛОВЕЧА...»\13 - Ирмосы канона «Волною морскою», глас 6 - песнь 1 «Волною морскою...».wav

Pre-gap length 0:00:00.74

Peak level 36.8 %
Extraction speed 1.4 X
Track quality 100.0 %
Test CRC E6E953B5
Copy CRC E6E953B5
Track not present in AccurateRip database
Copy OK

Track 14

Filename D:\rtrtrtrt\Страстная Седмица - «ДА МОЛЧИТ ВСЯКАЯ ПЛОТЬ ЧЕЛОВЕЧА...»\14 - Ирмосы канона «Волною морскою», глас 6 - песнь 3 «Ят бысть...».wav

Peak level 41.8 %
Extraction speed 0.7 X
Track quality 99.8 %
Test CRC 54F000F9
Copy CRC 54F000F9
Track not present in AccurateRip database
Copy OK

Track 15

Filename D:\rtrtrtrt\Страстная Седмица - «ДА МОЛЧИТ ВСЯКАЯ ПЛОТЬ ЧЕЛОВЕЧА...»\15 - Ирмосы канона «Волною морскою», глас 6 - песнь 8 «Ужаснися бояйся небо...».wav

Peak level 53.5 %
Extraction speed 1.5 X
Track quality 100.0 %
Test CRC C0DE1885
Copy CRC C0DE1885
Track not present in AccurateRip database
Copy OK

Track 16

Filename D:\rtrtrtrt\Страстная Седмица - «ДА МОЛЧИТ ВСЯКАЯ ПЛОТЬ ЧЕЛОВЕЧА...»\16 - Ирмосы канона «Волною морскою», глас 6 - песнь 9 «Не рыдай Мене Мати...».wav

Peak level 52.9 %
Extraction speed 1.6 X
Track quality 100.0 %
Test CRC 98168CF8
Copy CRC 98168CF8
Track not present in AccurateRip database
Copy OK

Track 17

Filename D:\rtrtrtrt\Страстная Седмица - «ДА МОЛЧИТ ВСЯКАЯ ПЛОТЬ ЧЕЛОВЕЧА...»\17 - «Да молчит всякая плоть человеча...» (Болгарского распева, гарм. Е.С. Азеева).wav

Pre-gap length 0:00:00.68

Peak level 84.6 %
Extraction speed 2.2 X
Track quality 100.0 %
Test CRC A4732B75
Copy CRC A4732B75
Track not present in AccurateRip database
Copy OK

Track 18

Filename D:\rtrtrtrt\Страстная Седмица - «ДА МОЛЧИТ ВСЯКАЯ ПЛОТЬ ЧЕЛОВЕЧА...»\18 - «Воскресни Боже...» (Болгарского распева).wav

Peak level 48.6 %
Extraction speed 2.2 X
Track quality 100.0 %
Test CRC 7B6F7D48
Copy CRC 7B6F7D48
Track not present in AccurateRip database
Copy OK

Track 19

Filename D:\rtrtrtrt\Страстная Седмица - «ДА МОЛЧИТ ВСЯКАЯ ПЛОТЬ ЧЕЛОВЕЧА...»\19 - Многолетствование (гарм. архим. Матфея (Мормыля).wav

Pre-gap length 0:00:00.49

Peak level 74.1 %
Extraction speed 1.6 X
Track quality 100.0 %
Test CRC A4F21FB6
Copy CRC A4F21FB6
Track not present in AccurateRip database
Copy OK

None of the tracks are present in the AccurateRip database

No errors occurred

End of status report

==== Log checksum F507B1C0F9B1E9FEFC40370E5ED1ACE8012A20C99C1C2E40D00B465515D9598D ====
Download

Войдите на сайт, чтобы увидеть полную информацию.

Как скачивать  ·   Правила трекера



Последний раз редактировалось: rtrtrtrtmailru (2011-04-12 18:50), всего редактировалось 2 раз(а)
[Профиль]  [ЛС] 

brd_eugene

Стаж: 9 лет 8 месяцев

Сообщений: 64

Ukraine

post 11-Апр-2011 22:51 (спустя 11 часов)

[Цитировать] 

Спаси Бог!
[Профиль]  [ЛС] 

andrejpushkaryov

Модератор

Стаж: 9 лет 4 месяца

Сообщений: 1041

Откуда: Ижевск

Russia

post 17-Апр-2011 09:02 (спустя 5 дней)

[Цитировать] 

Давайте впредь не будем нарушать пункт 2.6 Правила трекера , топик исправлен....
[Профиль]  [ЛС] 

Владимир Лухов

Стаж: 7 лет 11 месяцев

Сообщений: 110

Откуда: Саратов

Russia

post 17-Апр-2011 21:49 (спустя 12 часов)

[Цитировать] 

Спасибо!

_________________
С уважением. Владимир.
[Профиль]  [ЛС] 

Idealist

Стаж: 7 лет 4 месяца

Сообщений: 58

Russia

post 13-Май-2011 13:40 (спустя 25 дней)

[Цитировать] 

Христос Воскресе! Спаси Господи за раздачу!
[Профиль]  [ЛС] 

Irmologion

Стаж: 1 год

Сообщений: 1

post 27-Фев-2018 00:15 (спустя 6 лет 9 месяцев)

[Цитировать] 

Давно искал эти песнопения. Будьте добры, встаньте на раздачу.
[Профиль]  [ЛС] 
Показать сообщения:    
Ответить на тему

Текущее время: 18-Авг 03:30

Часовой пояс: GMT + 4



Вы не можете начинать темы
Вы не можете отвечать на сообщения
Вы не можете редактировать свои сообщения
Вы не можете удалять свои сообщения
Вы не можете голосовать в опросах
Вы не можете прикреплять файлы к сообщениям
Вы не можете скачивать файлы