Loading...
Error

История любви. Владимир Высоцкий (Леонид Велехов) [2018 г., документальный, HDTVRip]

Ответить на тему
Статистика раздачи
   
 
Автор Сообщение

Виталий Липатов

Администратор

Стаж: 48 лет

Сообщений: 492

Russia

post 16-Фев-2018 01:39

[Цитировать] 

История любви. Владимир Высоцкий

pic
Год выпуска: 2018
Жанр: документальный
Продолжительность: 00:54:00

Режиссер: Леонид Велехов

В фильме снимались: Людмила Абрамова

Описание: В новом выпуске «Культа личности», посвященном 80-летию Владимира Высоцкого, его вторая жена и мать его сыновей, Людмила Абрамова рассказывает историю их любви.

Качество: HDTVRip
Формат: MKV
Видео кодек: H.264
Аудио кодек: MPEG Audio
Видео: [H264] 1280x720 24bpp 25.000 fps 887.0 kbps (108.3 kbyte/s)
Аудио: 44100 Hz, 2 ch, s16le, 125.6 kbit/8.90% (ratio: 15698->176400)

Скриншоты:
pic pic pic pic
скрытый текст
Дополнительная информация: $ mediainfo История\ любви.\ Владимир\ Высоцкий.mp4
General
Complete name : История любви. Владимир Высоцкий.mp4
Format : MPEG-4
Format profile : Base Media / Version 2
Codec ID : mp42 (isom/mp42)
File size : 392 MiB
Duration : 54 min 0 s
Overall bit rate mode : Variable
Overall bit rate : 1 016 kb/s
Encoded date : UTC 2018-02-03 19:41:51
Tagged date : UTC 2018-02-03 19:41:51
gsst : 0
gstd : 3240066

Video
ID : 1
Format : AVC
Format/Info : Advanced Video Codec
Format profile : Main@L3.1
Format settings : CABAC / 3 Ref Frames
Format settings, CABAC : Yes
Format settings, RefFrames : 3 frames
Codec ID : avc1
Codec ID/Info : Advanced Video Coding
Duration : 54 min 0 s
Bit rate : 887 kb/s
Width : 1 280 pixels
Height : 720 pixels
Display aspect ratio : 16:9
Frame rate mode : Constant
Frame rate : 25.000 FPS
Color space : YUV
Chroma subsampling : 4:2:0
Bit depth : 8 bits
Scan type : Progressive
Bits/(Pixel*Frame) : 0.038
Stream size : 343 MiB (87%)
Title : ISO Media file produced by Google Inc. Created on: 02/03/2018.
Encoded date : UTC 2018-02-03 19:41:51
Tagged date : UTC 2018-02-03 19:41:51
Color range : Limited
Color primaries : BT.709
Transfer characteristics : BT.709
Matrix coefficients : BT.709

Audio
ID : 2
Format : AAC
Format/Info : Advanced Audio Codec
Format profile : LC
Codec ID : mp4a-40-2
Duration : 54 min 0 s
Bit rate mode : Variable
Bit rate : 126 kb/s
Channel(s) : 2 channels
Channel positions : Front: L R
Sampling rate : 44.1 kHz
Frame rate : 43.066 FPS (1024 SPF)
Compression mode : Lossy
Stream size : 48.5 MiB (12%)
Title : ISO Media file produced by Google Inc. Created on: 02/03/2018.
Encoded date : UTC 2018-02-03 19:41:51
Tagged date : UTC 2018-02-03 19:41:51
Download

Войдите на сайт, чтобы увидеть полную информацию.

Как скачивать  ·   Правила трекера

[Профиль]  [ЛС] 

Домработник

Стаж: 6 лет 4 месяца

Сообщений: 68

Russia

post 21-Фев-2018 11:21 (спустя 5 дней)

[Цитировать] 

Спасибо.
[Профиль]  [ЛС] 
Показать сообщения:    
Ответить на тему

Текущее время: 15-Авг 05:16

Часовой пояс: GMT + 4



Вы не можете начинать темы
Вы не можете отвечать на сообщения
Вы не можете редактировать свои сообщения
Вы не можете удалять свои сообщения
Вы не можете голосовать в опросах
Вы не можете прикреплять файлы к сообщениям
Вы не можете скачивать файлы