Loading...
Error

(Церковная музыка и церковные хоры (lossless).) "Память их в род и род". Памяти 600-летия победы на Куликовом поле. (2CD).- 2003, APE (image + .cue), lossless

Ответить на тему
Статистика раздачи
   
 
Автор Сообщение

СЕРГУЛЕТ

Стаж: 9 лет 6 месяцев

Сообщений: 2637

Откуда: LA ROMANA

Dominicanrep

post 20-Окт-2009 20:25

[Цитировать] 

"Память их в род и род". Памяти 600-летия победы на Куликовом поле. (2CD).

pic
Страна: Россия. Московское Подворье Свято-Троицкой Сергиевой Лавры.
Жанр: Церковная музыка и церковные хоры (lossless).
Год выпуска: 2003
Формат: APE (image + .cue)
Битрейт аудио: lossless
Продолжительность: 00:51:35+00:49:10
Обложки+Содержание
picpicpic
EAC log
Exact Audio Copy V0.99 prebeta 5 from 4. May 2009

Отчёт EAC об извлечении, выполненном 18. октября 2009, 13:52

Хор ТСЛ / Память их в род и род-1

Дисковод: ASUS BC-1205PT Adapter: 1 ID: 0

Режим чтения : Достоверность
Использование точного потока : Да
Отключение кэша аудио : Да
Использование указателей C2 : Нет

Коррекция смещения при чтении : 667
Способность читать области Lead-in и Lead-out : Нет
Заполнение пропущенных сэмплов тишиной : Да
Удаление блоков с тишиной в начале и конце : Нет
При вычислениях CRC использовались нулевые сэмплы : Да
Интерфейс : Встроенный Win32-интерфейс для Win NT/2000

Выходной формат : Внутренние WAV-операции
Формат сэмплов : 44.100 Гц; 16 бит; стерео

TOC извлечённого CD

Трек | Старт | Длительность | Начальный сектор | Конечный сектор
---------------------------------------------------------------------
1 | 0:00.00 | 4:24.43 | 0 | 19842
2 | 4:24.43 | 3:25.04 | 19843 | 35221
3 | 7:49.47 | 3:52.00 | 35222 | 52621
4 | 11:41.47 | 5:13.58 | 52622 | 76154
5 | 16:55.30 | 5:50.34 | 76155 | 102438
6 | 22:45.64 | 2:33.41 | 102439 | 113954
7 | 25:19.30 | 4:36.19 | 113955 | 134673
8 | 29:55.49 | 2:47.19 | 134674 | 147217
9 | 32:42.68 | 2:58.42 | 147218 | 160609
10 | 35:41.35 | 2:49.59 | 160610 | 173343
11 | 38:31.19 | 13:02.53 | 173344 | 232046

Характеристики диапазона извлечения и сообщения об ошибках

Выбранный диапазон

Имя файла C:\Хор ТСЛ - Память их в род и род-1.wav

Пиковый уровень 90.2 %
Качество диапазона 99.9 %
CRC копии AA41436A
Копирование... OK

Ошибок не произошло

СD2.
Exact Audio Copy V0.99 prebeta 5 from 4. May 2009

Отчёт EAC об извлечении, выполненном 18. октября 2009, 14:26

Хор ТСЛ / Память их в род и род-2

Дисковод: ASUS BC-1205PT Adapter: 1 ID: 0

Режим чтения : Достоверность
Использование точного потока : Да
Отключение кэша аудио : Да
Использование указателей C2 : Нет

Коррекция смещения при чтении : 667
Способность читать области Lead-in и Lead-out : Нет
Заполнение пропущенных сэмплов тишиной : Да
Удаление блоков с тишиной в начале и конце : Нет
При вычислениях CRC использовались нулевые сэмплы : Да
Интерфейс : Встроенный Win32-интерфейс для Win NT/2000

Выходной формат : Внутренние WAV-операции
Формат сэмплов : 44.100 Гц; 16 бит; стерео

TOC извлечённого CD

Трек | Старт | Длительность | Начальный сектор | Конечный сектор
---------------------------------------------------------------------
1 | 0:00.00 | 4:40.09 | 0 | 21008
2 | 4:40.09 | 3:33.05 | 21009 | 36988
3 | 8:13.14 | 2:40.08 | 36989 | 48996
4 | 10:53.22 | 4:38.63 | 48997 | 69909
5 | 15:32.10 | 2:36.36 | 69910 | 81645
6 | 18:08.46 | 3:32.68 | 81646 | 97613
7 | 21:41.39 | 6:10.56 | 97614 | 125419
8 | 27:52.20 | 3:17.18 | 125420 | 140212
9 | 31:09.38 | 5:38.69 | 140213 | 165631
10 | 36:48.32 | 3:29.50 | 165632 | 181356
11 | 40:18.07 | 2:32.50 | 181357 | 192806
12 | 42:50.57 | 6:17.31 | 192807 | 221112

Характеристики диапазона извлечения и сообщения об ошибках

Выбранный диапазон

Имя файла C:\Хор ТСЛ - Память их в род и род-2.wav

Пиковый уровень 98.4 %
Качество диапазона 100.0 %
CRC копии 8FB3A2F2
Копирование... OK

Ошибок не произошло
Конец отчёта
Download

Войдите на сайт, чтобы увидеть полную информацию.

Как скачивать  ·   Правила трекера



Последний раз редактировалось: СЕРГУЛЕТ (2010-08-02 18:16), всего редактировалось 2 раз(а)
[Профиль]  [ЛС] 

potemkin11

Стаж: 8 лет 5 месяцев

Сообщений: 42

Belarus

post 14-Янв-2011 22:44 (спустя 1 год 2 месяца)

[Цитировать] 

Спаси Господи!!1
[Профиль]  [ЛС] 

Pavlin-mavlin

Стаж: 7 лет 5 месяцев

Сообщений: 9

Ukraine

post 29-Апр-2011 23:53 (спустя 3 месяца 15 дней)

[Цитировать] 

Помилуй Бог. Благодарю.
[Профиль]  [ЛС] 

olga1512

Стаж: 6 лет 10 месяцев

Сообщений: 2

Откуда: Владивосток

Russia

post 10-Окт-2011 18:17 (спустя 5 месяцев 10 дней)

[Цитировать] 

Красота церковного пения одухотворяет душу! Арх Матфей Мормыль был непревзойденным профессионалом. Великолепная гармонизация!
[Профиль]  [ЛС] 

ivolga145

Стаж: 7 месяцев

Сообщений: 1

Russia

post 29-Дек-2017 22:02 (спустя 6 лет 2 месяца)

[Цитировать] 

Братья,как скачать не пойму.
[Профиль]  [ЛС] 
Показать сообщения:    
Ответить на тему

Текущее время: 15-Авг 05:18

Часовой пояс: GMT + 4



Вы не можете начинать темы
Вы не можете отвечать на сообщения
Вы не можете редактировать свои сообщения
Вы не можете удалять свои сообщения
Вы не можете голосовать в опросах
Вы не можете прикреплять файлы к сообщениям
Вы не можете скачивать файлы