Loading...
Error

Оболганный Государь / Ложь Матильды (Сергий Алиев) [2017 г., документальный, история, WEBRip 1080p]

Ответить на тему
Статистика раздачи
   
 
Автор Сообщение

vladimirkiev

Стаж: 1 год 3 месяца

Сообщений: 5

Russia

post 21-Ноя-2017 22:25

[Цитировать] 

Оболганный Государь / Ложь Матильды

pic
Год выпуска: 2017
Жанр: документальный, история
Продолжительность: 01:44:14

Режиссер: Сергий Алиев

В фильме снимались: Владимир Лавров, Федор Емельяненко, Сергей Рыжиков, Николай Бурляев, Федор Конюхов, Алексей Соловьев, Тимофей Кургин, Владыка Викентий (Морарь), Егор Холмогоров, Илзе Лиепа, Митрополит Афанасий, Владимир Лавров, Виталий Милонов, Юрий Рязанов, Василий Бойко-Великий, Адам Делимханов, Альбир Крганов, Михаил Бабкин, Юрий Воробьевский

Описание: Рабочее название - «Ложь Матильды». Фильм посвящен последнему Российскому императору Николаю II. В фильме приняли участие историки Владимир Лавров и Алексей Соловьев, путешественник Федор Конюхов, народный артист России Николай Бурляев, балерина Ильзе Лиепа, космонавт Сергей Рыжиков, бывший архиепископ Екатеринбургский и Верхотурский Викентий и глава Союза ММА России Федор Емельяненко. Авторы «Оболганного государя» предлагали показать этот фильм на федеральных каналах, однако получили отказ.
«Мы обращались к „России“, „России-24“. Но на этих каналах — одно хамство. Нас называли там „царебожники“! „Первому каналу“ вообще это не интересно. Я вот сейчас узнал, что Алексей Учитель готовит телевизионную версию своей „Матильды“. То есть если православные в кино и не пойдут, то по Первому каналу его все равно всем покажут в четырех сериях!» — возмущается Сергий Алиев. Он уверен, что «федералы» отказались показывать его документальную ленту, потому что работают «по заказу — нужна чернуха, никто не будет позитивно рассматривать личность святого царя»...

Качество: WEBRip
Формат: MKV
Видео кодек: H.264
Аудио кодек: AAC
Видео: AVC/H.264, 1920x1080 (16:9), ~6123 Kbps
Аудио: AAC, 2 ch, 128 Kbps
MediaInfo
General
Unique ID : 209806523479154391638167960762966034569 (0x9DD7444087541CDE834F386470634889)
Complete name : D:\Film\Оболганный Государь.mkv
Format : Matroska
Format version : Version 4 / Version 2
File size : 4.56 GiB
Duration : 1 h 44 min
Overall bit rate : 6 269 kb/s
Encoded date : UTC 2017-11-21 11:32:12
Writing application : mkvmerge v18.0.0 ('Apricity') 64-bit
Writing library : libebml v1.3.5 + libmatroska v1.4.8
Cover : Yes
Attachments : cover.png

Video
ID : 1
Format : AVC
Format/Info : Advanced Video Codec
Format profile : High@L4
Format settings : CABAC / 4 Ref Frames
Format settings, CABAC : Yes
Format settings, RefFrames : 4 frames
Codec ID : V_MPEG4/ISO/AVC
Duration : 1 h 44 min
Bit rate : 6 123 kb/s
Width : 1 920 pixels
Height : 1 080 pixels
Display aspect ratio : 16:9
Frame rate mode : Constant
Frame rate : 30.000 FPS
Color space : YUV
Chroma subsampling : 4:2:0
Bit depth : 8 bits
Scan type : Progressive
Bits/(Pixel*Frame) : 0.098
Stream size : 4.47 GiB (98%)
Writing library : x264 core 142 r2455 021c0dc
Encoding settings : cabac=1 / ref=4 / deblock=1:2:2 / analyse=0x3:0x113 / me=dia / subme=2 / psy=1 / psy_rd=1.00:0.00 / mixed_ref=1 / me_range=16 / chroma_me=1 / trellis=0 / 8x8dct=1 / cqm=0 / deadzone=21,11 / fast_pskip=1 / chroma_qp_offset=0 / threads=36 / lookahead_threads=8 / sliced_threads=0 / nr=0 / decimate=1 / interlaced=0 / bluray_compat=0 / constrained_intra=0 / bframes=0 / weightp=2 / keyint=90 / keyint_min=9 / scenecut=0 / intra_refresh=0 / rc_lookahead=40 / rc=abr / mbtree=1 / bitrate=6123 / ratetol=1.0 / qcomp=0.60 / qpmin=10 / qpmax=51 / qpstep=4 / ip_ratio=0.91 / aq=1:1.00
Language : Russian
Default : Yes
Forced : No

Audio
ID : 2
Format : AAC
Format/Info : Advanced Audio Codec
Format profile : LC
Codec ID : A_AAC-2
Duration : 1 h 44 min
Bit rate : 128 kb/s
Channel(s) : 2 channels
Channel positions : Front: L R
Sampling rate : 44.1 kHz
Frame rate : 43.066 FPS (1024 SPF)
Compression mode : Lossy
Stream size : 95.4 MiB (2%)
Language : Russian
Default : Yes
Forced : No
Скриншоты:
pic pic pic pic
Дополнительные скриншоты
pic pic pic pic

pic pic pic pic

pic pic pic pic

pic pic pic pic

pic pic pic pic

pic pic pic pic

pic pic pic pic

pic pic pic pic

pic pic pic pic

pic pic pic pic
Download

Войдите на сайт, чтобы увидеть полную информацию.

Как скачивать  ·   Правила трекера

[Профиль]  [ЛС] 
Показать сообщения:    
Ответить на тему

Текущее время: 22-Окт 08:12

Часовой пояс: GMT + 4



Вы не можете начинать темы
Вы не можете отвечать на сообщения
Вы не можете редактировать свои сообщения
Вы не можете удалять свои сообщения
Вы не можете голосовать в опросах
Вы не можете прикреплять файлы к сообщениям
Вы не можете скачивать файлы