Loading...
Error

(Церковная музыка и церковные хоры (lossless)) "Избранные песнопения Киево-Печерской Лавры". Хор братии Киево-Печерской Лавры. Регент иеромонах Кирилл (Борисевич). - 2004, AРЕ (image + .cue), lossless

Ответить на тему
Статистика раздачи
   
 
Автор Сообщение

СЕРГУЛЕТ

Стаж: 9 лет 8 месяцев

Сообщений: 2637

Откуда: LA ROMANA

Dominicanrep

post 09-Окт-2009 21:38

[Цитировать] 

"Избранные песнопения Киево-Печерской Лавры". Хор братии Киево-Печерской Лавры. Регент иеромонах Кирилл (Борисевич).

pic
Страна: Россия. Продюсерский центр Игоря Матвиенко.
Жанр: Церковная музыка и церковные хоры (lossless)
Год выпуска: 2004
Формат: AРЕ (image + .cue)
Битрейт аудио: lossless
Продолжительность: 00:39:49
Трэклист:
1. Бой часов Лаврской колокольни
2. Кондак «Взбранной Воеводе…»*
3. Тропарь Успению Пресвятой Богородицы
«В рождестве девство сохранила…»*
4. «Блажен муж…»
5. Догматик «Радуйся, живоносный Кресте…»
6. Стихира «Всемирную славу…»*
7. Величание Успению Пресвятой Богородицы**
8. Антифоны, глас 8
9. Ирмосы, глас 8
10. «Об’ятия Отче…»**
11. «Образ чистого Рождества…»*
12. «О Всепетая Мати…»
13. Стихира «Земле Русская…»*
14. Звон колокольни Ближних Пещер

* Напев Киево-Печерской Лавры
** Киевский распев
Дополнительная информация: После почти тридцатилетнего запустения возродилась колыбель русского монашества – Свято-Успенская Киево-Печерская Лавра. Во вновь открытую обитель не только пришли новоначальные, но и вернулись старые лаврские монахи со своим глубоким молитвенным опытом и знанием традиций. Братия стремится возродить и сохранить многовековые традиции Киево-Печерского богослужебного пения, придающие лаврским службам особенную торжественность и красоту.

Хор монастыря не раз приглашали на духовные торжества и фестивали церковного пения. Представленные на этом диске песнопения – мелодические жемчужины в богослужебном ожерелье Лавры, передающие молитвенное настроение верующего.
Содержание+Обложки
picpicpic
EAC log
Exact Audio Copy V0.99 prebeta 5 from 4. May 2009

Отчёт EAC об извлечении, выполненном 9. октября 2009, 11:34

Хор братии Свято-Успенской Киево-Печерской Лавры. Регент иеродиакон Кирилл (Борисевич) / Избранные Песнопения Киево-Печерской Лавры

Дисковод: ASUS BC-1205PT Adapter: 1 ID: 0

Режим чтения : Достоверность
Использование точного потока : Да
Отключение кэша аудио : Да
Использование указателей C2 : Нет

Коррекция смещения при чтении : 667
Способность читать области Lead-in и Lead-out : Нет
Заполнение пропущенных сэмплов тишиной : Да
Удаление блоков с тишиной в начале и конце : Нет
При вычислениях CRC использовались нулевые сэмплы : Да
Интерфейс : Встроенный Win32-интерфейс для Win NT/2000

Выходной формат : Внутренние WAV-операции
Формат сэмплов : 44.100 Гц; 16 бит; стерео

TOC извлечённого CD

Трек | Старт | Длительность | Начальный сектор | Конечный сектор
---------------------------------------------------------------------
1 | 0:00.10 | 1:22.39 | 10 | 6198
2 | 1:22.49 | 2:22.62 | 6199 | 16910
3 | 3:45.36 | 0:44.11 | 16911 | 20221
4 | 4:29.47 | 5:29.65 | 20222 | 44961
5 | 9:59.37 | 2:33.62 | 44962 | 56498
6 | 12:33.24 | 2:23.69 | 56499 | 67292
7 | 14:57.18 | 0:59.70 | 67293 | 71787
8 | 15:57.13 | 4:03.26 | 71788 | 90038
9 | 20:00.39 | 4:31.11 | 90039 | 110374
10 | 24:31.50 | 2:06.28 | 110375 | 119852
11 | 26:38.03 | 0:57.67 | 119853 | 124194
12 | 27:35.70 | 5:16.24 | 124195 | 147918
13 | 32:52.19 | 3:39.57 | 147919 | 164400
14 | 36:32.01 | 3:15.30 | 164401 | 179055

Характеристики диапазона извлечения и сообщения об ошибках

Выбранный диапазон

Имя файла C:\Хор братии Свято-Успенской Киево-Печерской Лавры. Регент иеродиакон Кирилл (Борисевич) - Избранные Песнопения Киево-Печерской Лавры.wav

Пиковый уровень 100.0 %
Качество диапазона 99.9 %
CRC копии 12081E5D
Копирование... OK

Ошибок не произошло
Конец отчёта
Download

Войдите на сайт, чтобы увидеть полную информацию.

Как скачивать  ·   Правила трекера

[Профиль]  [ЛС] 

Странник1

Стаж: 8 лет 10 месяцев

Сообщений: 2307

Russia

post 18-Авг-2010 13:07 (спустя 10 месяцев)

[Цитировать] 

Спасибо!
[Профиль]  [ЛС] 

Bodis

post 27-Мар-2011 01:07 (спустя 7 месяцев)

[Цитировать] 

Спасибо!!! Very Happy
 

AllaVal27

Стаж: 4 года 11 месяцев

Сообщений: 138

Canada

post 12-Ноя-2013 09:14 (спустя 2 года 7 месяцев)

[Цитировать] 

Спасибо, очень вдохновляет!
[Профиль]  [ЛС] 

mars1574

Стаж: 4 года 9 месяцев

Сообщений: 33

Russia

post 08-Окт-2017 22:38 (спустя 3 года 10 месяцев)

[Цитировать] 

Спасибо..
[Профиль]  [ЛС] 
Показать сообщения:    
Ответить на тему

Текущее время: 16-Окт 02:05

Часовой пояс: GMT + 4



Вы не можете начинать темы
Вы не можете отвечать на сообщения
Вы не можете редактировать свои сообщения
Вы не можете удалять свои сообщения
Вы не можете голосовать в опросах
Вы не можете прикреплять файлы к сообщениям
Вы не можете скачивать файлы