Loading...
Error

(Церковная музыка и церковные хоры (lossless).) "Видехом Свет Истинный". Песнопения праздников Святой Троицы и преподобного Сергия Радонежского. - 2008, APE (image + .cue), lossless

Ответить на тему
Статистика раздачи
   
 
Автор Сообщение

СЕРГУЛЕТ

Стаж: 9 лет 4 месяца

Сообщений: 2637

Откуда: LA ROMANA

Dominicanrep

post 14-Мар-2010 19:38

[Цитировать] 

"Видехом Свет Истинный". Песнопения праздников Святой Троицы и преподобного Сергия Радонежского.

pic
Страна: Россия. Московское Подворье Свято-Троицкой Сергиевой Лавры.
Жанр: Церковная музыка и церковные хоры (lossless).
Год выпуска: 2008
Формат: APE (image + .cue)
Битрейт аудио: lossless
Продолжительность: 00:52:42
Трексист:
Песнопения праздника
Святой Троицы
1. «Придите, людие, Триипостасному
Божеству поклонимся». 3:54
2. «Преславная днесь видеша вси язцы». 2:44
3.«Царю небесный». 2:18
4. «Не разумеюще язьщы, Господи». 1:34
5. «Благословен ecu Христе Боже наш». 1:24
6. «Предвечный Царю веков». 3:35
7. «Благословен ecu Христе Боже наш». 1:31
8. «Егда снисшед языки слия». 1:19
9. «Радуйся Царице». 1:57
10. «Царю Небесный». 4:18
11.«Видехом Свет истинный». 1:27
Песнопения праздника Преподобного Сергия Радонежского
12. «Приидите, празднолюбцы». 3:06
13. «О, сладкаго Твоего гласа». 3:09
14. «Иже добродетелей подвижник». 2:08
15. «От юности восприял». 1:54
1б.«Возбранный от Царя». 2:23
17. «Преподобие отче». 2:20
18. «О, священная главо». 4:50
19. «Воскликните Господеви». 3:06
20. «Господи, силою Твоею». 3:43
Обложки+Содержание
picpicpicpic
EAC log
Exact Audio Copy V0.99 prebeta 5 from 4. May 2009

Отчёт EAC об извлечении, выполненном 13. марта 2010, 23:21

Unknown Artist / Видехом Свет Истнный

Дисковод: ASUS DRW-2014L1T Adapter: 0 ID: 1

Режим чтения : Достоверность
Использование точного потока : Да
Отключение кэша аудио : Да
Использование указателей C2 : Нет

Коррекция смещения при чтении : 6
Способность читать области Lead-in и Lead-out : Нет
Заполнение пропущенных сэмплов тишиной : Да
Удаление блоков с тишиной в начале и конце : Нет
При вычислениях CRC использовались нулевые сэмплы : Да
Интерфейс : Встроенный Win32-интерфейс для Win NT/2000

Выходной формат : Внутренние WAV-операции
Формат сэмплов : 44.100 Гц; 16 бит; стерео

TOC извлечённого CD

Трек | Старт | Длительность | Начальный сектор | Конечный сектор
---------------------------------------------------------------------
1 | 0:00.00 | 3:54.11 | 0 | 17560
2 | 3:54.11 | 2:44.00 | 17561 | 29860
3 | 6:38.11 | 2:17.45 | 29861 | 40180
4 | 8:55.56 | 1:34.04 | 40181 | 47234
5 | 10:29.60 | 1:24.36 | 47235 | 53570
6 | 11:54.21 | 3:34.57 | 53571 | 69677
7 | 15:29.03 | 1:30.47 | 69678 | 76474
8 | 16:59.50 | 1:19.27 | 76475 | 82426
9 | 18:19.02 | 1:56.69 | 82427 | 91195
10 | 20:15.71 | 4:17.56 | 91196 | 110526
11 | 24:33.52 | 1:27.07 | 110527 | 117058
12 | 26:00.59 | 3:06.02 | 117059 | 131010
13 | 29:06.61 | 3:08.48 | 131011 | 145158
14 | 32:15.34 | 2:07.43 | 145159 | 154726
15 | 34:23.02 | 1:54.25 | 154727 | 163301
16 | 36:17.27 | 2:23.29 | 163302 | 174055
17 | 38:40.56 | 2:20.11 | 174056 | 184566
18 | 41:00.67 | 4:50.23 | 184567 | 206339
19 | 45:51.15 | 3:05.51 | 206340 | 220265
20 | 48:56.66 | 3:43.29 | 220266 | 237019

Характеристики диапазона извлечения и сообщения об ошибках

Выбранный диапазон

Имя файла C:\Unknown Artist - Видехом Свет Истнный.wav

Пиковый уровень 100.0 %
Качество диапазона 99.9 %
CRC копии A06DB969
Копирование... OK

Ошибок не произошло

Конец отчёта
Download

Войдите на сайт, чтобы увидеть полную информацию.

Как скачивать  ·   Правила трекера

[Профиль]  [ЛС] 

Странник1

Стаж: 8 лет 6 месяцев

Сообщений: 2307

Russia

post 18-Авг-2010 12:26 (спустя 5 месяцев 3 дня)

[Цитировать] 

Спасибо!
[Профиль]  [ЛС] 

sinner7

Стаж: 8 лет

Сообщений: 242

post 13-Окт-2010 22:37 (спустя 1 месяц 26 дней)

[Цитировать] 

Храни Вас Господь!
[Профиль]  [ЛС] 

+Сергей+

Стаж: 7 лет 6 месяцев

Сообщений: 225

Откуда: Москва

Russia

post 28-Дек-2010 19:39 (спустя 2 месяца 14 дней)

[Цитировать] 

Спасибо.
[Профиль]  [ЛС] 

mars1574

Стаж: 4 года 6 месяцев

Сообщений: 33

Russia

post 08-Окт-2017 18:38 (спустя 6 лет 9 месяцев)

[Цитировать] 

Спaсибо.
[Профиль]  [ЛС] 
Показать сообщения:    
Ответить на тему

Текущее время: 20-Июн 22:45

Часовой пояс: GMT + 4



Вы не можете начинать темы
Вы не можете отвечать на сообщения
Вы не можете редактировать свои сообщения
Вы не можете удалять свои сообщения
Вы не можете голосовать в опросах
Вы не можете прикреплять файлы к сообщениям
Вы не можете скачивать файлы