Loading...
Error

(Церковная музыка и церковные хоры (lossless).) "Великий Покаянный Канон прп. Андрея Критского". Хор братии Свято-Успенской Киево-Печерской Лавры. Регент иеродиакон Кирилл (Борисевич). (2CD). - 2002, APE (image + .cue), lossless

Ответить на тему
Статистика раздачи
   
 
Автор Сообщение

СЕРГУЛЕТ

Стаж: 9 лет 8 месяцев

Сообщений: 2637

Откуда: LA ROMANA

Dominicanrep

post 14-Фев-2010 00:36

[Цитировать] 

"Великий Покаянный Канон прп. Андрея Критского". Хор братии Свято-Успенской Киево-Печерской Лавры. Регент иеродиакон Кирилл (Борисевич). (2CD).

pic
Страна: Россия. Продюсерский центр Игоря Матвиенко.
Жанр: Церковная музыка и церковные хоры (lossless).
Год выпуска: 2002
Формат: APE (image + .cue)
Битрейт аудио: lossless
Продолжительность: 01:14:45+00:35:46
Трэклист:
диск I
1. Псалом 69 Боже, в помощь мою вонми…
Песнь 1 Помощник и покровитель бысть мне во спасение…
2. Песнь 2 Вонми, небо, и возглаголю…
3. Песнь 3 На недвижимом, Христе, камени заповедей Твоих…
4. Песнь 4 Услыша пророк пришествие Твое, Господи…
5. Песнь 5 От нощи утренююща, Человеколюбче…
6. Песнь 6 Возопих всем сердцем моим к щедрому Богу…
7. Кондак Душе моя…
8. Песнь 7 Согрешихом, беззаконновахом, неправдовахом пред Тобою…
9. Песнь 8 Егоже воинства небесная славят…
10. Песнь 9 Безсеменнаго зачатия рождество несказанное…

часть II
1. Псалом 69 Боже, в помощь мою вонми…
Песнь 1 Помощник и покровитель бысть мне во спасение…
2. Песнь 2 Вонми, небо, и возглаголю…
3. Песнь 3 Утверди, Господи, на камени заповедей Твоих…
4. Песнь 4 Услыша пророк пришествие Твое, Господи…
5. Песнь 5 От нощи утренююща, Человеколюбче…
6. Песнь 6 Возопих всем сердцем моим к щедрому Богу…
7. Кондак Душе моя…
8. Песнь 7 Согрешихом, беззаконновахом, неправдовахом пред Тобою…
9. Песнь 8 Егоже воинства небесная славят…
10. Песнь 9 Безсеменнаго зачатия рождество несказанное…
EAC log
Exact Audio Copy V0.99 prebeta 5 from 4. May 2009

Отчёт EAC об извлечении, выполненном 13. февраля 2010, 21:58

Хор Киево-Печерской Лавры / Покаянный Канон-1

Дисковод: ASUS DRW-2014L1T Adapter: 0 ID: 1

Режим чтения : Скоростной

Коррекция смещения при чтении : 6
Способность читать области Lead-in и Lead-out : Нет
Заполнение пропущенных сэмплов тишиной : Да
Удаление блоков с тишиной в начале и конце : Нет
При вычислениях CRC использовались нулевые сэмплы : Да
Интерфейс : Встроенный Win32-интерфейс для Win NT/2000

Выходной формат : Внутренние WAV-операции
Формат сэмплов : 44.100 Гц; 16 бит; стерео

TOC извлечённого CD

Трек | Старт | Длительность | Начальный сектор | Конечный сектор
---------------------------------------------------------------------
1 | 0:00.00 | 8:16.13 | 0 | 37212
2 | 8:16.13 | 8:05.59 | 37213 | 73646
3 | 16:21.72 | 5:17.19 | 73647 | 97440
4 | 21:39.16 | 10:43.31 | 97441 | 145696
5 | 32:22.47 | 6:33.62 | 145697 | 175233
6 | 38:56.34 | 5:23.21 | 175234 | 199479
7 | 44:19.55 | 2:05.20 | 199480 | 208874
8 | 46:25.00 | 8:45.13 | 208875 | 248262
9 | 55:10.13 | 7:54.07 | 248263 | 283819
10 | 63:04.20 | 11:41.32 | 283820 | 336426

Характеристики диапазона извлечения и сообщения об ошибках

Выбранный диапазон

Имя файла C:\Хор Киево-Печерской Лавры - Покаянный Канон-1.wav

Проблемы синхронизации 0:00:34

Пиковый уровень 97.7 %
CRC копии 9654958A
Копирование завершено

Ошибок не произошло

Конец отчёта

cd2
Exact Audio Copy V0.99 prebeta 5 from 4. May 2009

Отчёт EAC об извлечении, выполненном 13. февраля 2010, 22:01

Хор Киево-Печерской Лавры / Великий Покаянный Канон-2

Дисковод: ASUS DRW-2014L1T Adapter: 0 ID: 1

Режим чтения : Скоростной

Коррекция смещения при чтении : 6
Способность читать области Lead-in и Lead-out : Нет
Заполнение пропущенных сэмплов тишиной : Да
Удаление блоков с тишиной в начале и конце : Нет
При вычислениях CRC использовались нулевые сэмплы : Да
Интерфейс : Встроенный Win32-интерфейс для Win NT/2000

Выходной формат : Внутренние WAV-операции
Формат сэмплов : 44.100 Гц; 16 бит; стерео

TOC извлечённого CD

Трек | Старт | Длительность | Начальный сектор | Конечный сектор
---------------------------------------------------------------------
1 | 0:00.00 | 4:30.35 | 0 | 20284
2 | 4:30.35 | 4:29.30 | 20285 | 40489
3 | 8:59.65 | 3:24.48 | 40490 | 55837
4 | 12:24.38 | 3:53.48 | 55838 | 73360
5 | 16:18.11 | 3:08.65 | 73361 | 87525
6 | 19:27.01 | 2:22.32 | 87526 | 98207
7 | 21:49.33 | 2:23.10 | 98208 | 108942
8 | 24:12.43 | 2:58.11 | 108943 | 122303
9 | 27:10.54 | 2:49.71 | 122304 | 135049
10 | 30:00.50 | 5:45.58 | 135050 | 160982

Характеристики диапазона извлечения и сообщения об ошибках

Выбранный диапазон

Имя файла C:\Хор Киево-Печерской Лавры - Великий Покаянный Канон-2.wav

Проблемы синхронизации 0:00:31
Проблемы синхронизации 0:03:04 - 0:03:05
Проблемы синхронизации 0:05:17

Пиковый уровень 91.0 %
CRC копии 643718ED
Копирование завершено

Ошибок не произошло

Конец отчёта
Download

Войдите на сайт, чтобы увидеть полную информацию.

Как скачивать  ·   Правила трекера

[Профиль]  [ЛС] 

Странник1

Стаж: 8 лет 10 месяцев

Сообщений: 2307

Russia

post 29-Окт-2010 17:35 (спустя 8 месяцев)

[Цитировать] 

Спаси Господи
[Профиль]  [ЛС] 

Serjimag

Стаж: 8 лет 10 месяцев

Сообщений: 8

Откуда: Россия

Russia

post 30-Ноя-2010 16:31 (спустя 1 месяц)

[Цитировать] 

Спасибо!
[Профиль]  [ЛС] 

+Сергей+

Стаж: 7 лет 10 месяцев

Сообщений: 225

Откуда: Москва

Russia

post 13-Дек-2010 12:26 (спустя 12 дней)

[Цитировать] 

Благодарю!
[Профиль]  [ЛС] 

repin_p

Стаж: 7 лет 11 месяцев

Сообщений: 29

Ukraine

post 11-Фев-2011 01:41 (спустя 1 месяц 28 дней)

[Цитировать] 

Спаси Бог!
[Профиль]  [ЛС] 

Anatolyi58

Стаж: 8 лет 7 месяцев

Сообщений: 165

Russia

post 06-Мар-2011 21:57 (спустя 23 дня)

[Цитировать] 

Спаси Господи!!!
[Профиль]  [ЛС] 

Грек

post 07-Мар-2011 18:31 (спустя 20 часов)

[Цитировать] 

Спаси Христос!
 

sandro68

post 07-Мар-2011 18:47 (спустя 16 минут)

[Цитировать] 

Чем это проигрывать?
 

Academic Crack

Администратор

Стаж: 9 лет 10 месяцев

Сообщений: 2082

Russia

post 07-Мар-2011 19:40 (спустя 52 минуты)

[Цитировать] 

sandro68 писал(а):

Чем это проигрывать?
Хотя бы этим.

_________________
pic
pic 100 Мбит/с, pic 100 Мбит/с.
Исправили раздачу? Пишите в личку со ссылкой на раздачу.
[Профиль]  [ЛС] 

sandro68

post 07-Мар-2011 21:50 (спустя 2 часа 10 минут)

[Цитировать] 

Academic Crack

Спасибо большое,помогло)
 

molya_s

Стаж: 8 лет 7 месяцев

Сообщений: 3

post 14-Мар-2011 21:08 (спустя 6 дней)

[Цитировать] 

я здесь тоже пою )))
[Профиль]  [ЛС] 

Владимир Лухов

Стаж: 8 лет 1 месяц

Сообщений: 110

Откуда: Саратов

Russia

post 16-Мар-2011 15:51 (спустя 1 день 18 часов)

[Цитировать] 

Спасибо.

_________________
С уважением. Владимир.
[Профиль]  [ЛС] 

allokey

post 07-Апр-2011 22:43 (спустя 22 дня)

[Цитировать] 

Спаси Господи!!!
 

1976 1978

Стаж: 6 лет 5 месяцев

Сообщений: 3

Russia

post 24-Дек-2012 16:40 (спустя 1 год 8 месяцев)

[Цитировать] 

Опять проблема с CUE. Не указано расширение APE. Файл не режется на отдельные треки.После исправления в CUE все работает.
[Профиль]  [ЛС] 

mars1574

Стаж: 4 года 9 месяцев

Сообщений: 33

Russia

post 08-Окт-2017 00:56 (спустя 4 года 9 месяцев)

[Цитировать] 

Спасибo..
[Профиль]  [ЛС] 
Показать сообщения:    
Ответить на тему

Текущее время: 16-Окт 01:16

Часовой пояс: GMT + 4



Вы не можете начинать темы
Вы не можете отвечать на сообщения
Вы не можете редактировать свои сообщения
Вы не можете удалять свои сообщения
Вы не можете голосовать в опросах
Вы не можете прикреплять файлы к сообщениям
Вы не можете скачивать файлы