Loading...
Error

(Церковная музыка и церковные хоры (lossless)) "Праздников Праздник! Христос Воскресе!". (2CD). - 1999, AРЕ (image + .cue), lossless

Ответить на тему
Статистика раздачи
   
 
Автор Сообщение

СЕРГУЛЕТ

Стаж: 9 лет 4 месяца

Сообщений: 2637

Откуда: LA ROMANA

Dominicanrep

post 08-Окт-2009 07:00

[Цитировать] 

"Праздников Праздник! Христос Воскресе!". (2CD).

pic
Страна: Россия. BMR-СОГЛАСИЕ.
Жанр: Церковная музыка и церковные хоры (lossless)
Год выпуска: 1999
Формат: AРЕ (image + .cue)
Битрейт аудио: lossless
Продолжительность: 01:12:39+01:12:36
Трэклист:
СD1. Божественная Литургия, совершенная Святейшим Патриархом Московским и всея Руси Алексием II в Успенском Патриаршем соборе Московского Кремля 28 апреля 1997 года (фрагменты).
СD2. Православная певческая традиция.
Содержание
pic
EAC log
Exact Audio Copy V0.99 prebeta 5 from 4. May 2009

Отчёт EAC об извлечении, выполненном 8. октября 2009, 0:34

Хор Новоспасского монастыря / Праздник Праздников-1

Дисковод: ASUS BC-1205PT Adapter: 1 ID: 0

Режим чтения : Достоверность
Использование точного потока : Да
Отключение кэша аудио : Да
Использование указателей C2 : Нет

Коррекция смещения при чтении : 667
Способность читать области Lead-in и Lead-out : Нет
Заполнение пропущенных сэмплов тишиной : Да
Удаление блоков с тишиной в начале и конце : Нет
При вычислениях CRC использовались нулевые сэмплы : Да
Интерфейс : Встроенный Win32-интерфейс для Win NT/2000

Выходной формат : Внутренние WAV-операции
Формат сэмплов : 44.100 Гц; 16 бит; стерео

TOC извлечённого CD

Трек | Старт | Длительность | Начальный сектор | Конечный сектор
---------------------------------------------------------------------
1 | 0:00.00 | 9:35.51 | 0 | 43175
2 | 9:35.51 | 6:18.67 | 43176 | 71592
3 | 15:54.43 | 3:32.69 | 71593 | 87561
4 | 19:27.37 | 2:26.08 | 87562 | 98519
5 | 21:53.45 | 1:56.39 | 98520 | 107258
6 | 23:50.09 | 6:37.21 | 107259 | 137054
7 | 30:27.30 | 3:52.41 | 137055 | 154495
8 | 34:19.71 | 6:29.22 | 154496 | 183692
9 | 40:49.18 | 5:03.63 | 183693 | 206480
10 | 45:53.06 | 3:21.06 | 206481 | 221561
11 | 49:14.12 | 15:29.27 | 221562 | 291263
12 | 64:43.39 | 3:42.10 | 291264 | 307923
13 | 68:25.49 | 2:26.28 | 307924 | 318901
14 | 70:52.02 | 1:45.28 | 318902 | 326804

Характеристики диапазона извлечения и сообщения об ошибках

Выбранный диапазон

Имя файла C:\Хор Новоспасского монастыря - Праздник Праздников-1.wav

Пиковый уровень 100.0 %
Качество диапазона 100.0 %
CRC копии 954B6346
Копирование... OK

Ошибок не произошло

CD2.
Exact Audio Copy V0.99 prebeta 5 from 4. May 2009

Отчёт EAC об извлечении, выполненном 8. октября 2009, 6:19

Песнопения Великого Поста и Святой Пасхи / ПРАЗДНИКОВ ПРАЗДНИК (S&V-049)

Дисковод: ASUS BC-1205PT Adapter: 1 ID: 0

Режим чтения : Достоверность
Использование точного потока : Да
Отключение кэша аудио : Да
Использование указателей C2 : Нет

Коррекция смещения при чтении : 667
Способность читать области Lead-in и Lead-out : Нет
Заполнение пропущенных сэмплов тишиной : Да
Удаление блоков с тишиной в начале и конце : Нет
При вычислениях CRC использовались нулевые сэмплы : Да
Интерфейс : Встроенный Win32-интерфейс для Win NT/2000

Выходной формат : Внутренние WAV-операции
Формат сэмплов : 44.100 Гц; 16 бит; стерео

TOC извлечённого CD

Трек | Старт | Длительность | Начальный сектор | Конечный сектор
---------------------------------------------------------------------
1 | 0:00.00 | 1:06.43 | 0 | 4992
2 | 1:06.43 | 5:04.23 | 4993 | 27815
3 | 6:10.66 | 10:56.49 | 27816 | 77064
4 | 17:07.40 | 4:05.08 | 77065 | 95447
5 | 21:12.48 | 5:59.33 | 95448 | 122405
6 | 27:12.06 | 2:30.10 | 122406 | 133665
7 | 29:42.16 | 1:33.33 | 133666 | 140673
8 | 31:15.49 | 6:39.03 | 140674 | 170601
9 | 37:54.52 | 2:00.33 | 170602 | 179634
10 | 39:55.10 | 1:28.27 | 179635 | 186261
11 | 41:23.37 | 1:45.50 | 186262 | 194186
12 | 43:09.12 | 3:00.33 | 194187 | 207719
13 | 46:09.45 | 1:07.63 | 207720 | 212807
14 | 47:17.33 | 2:07.29 | 212808 | 222361
15 | 49:24.62 | 7:32.13 | 222362 | 256274
16 | 56:57.00 | 2:43.09 | 256275 | 268508
17 | 59:40.09 | 3:03.35 | 268509 | 282268
18 | 62:43.44 | 2:07.62 | 282269 | 291855
19 | 64:51.31 | 7:42.67 | 291856 | 326572

Характеристики диапазона извлечения и сообщения об ошибках

Выбранный диапазон

Имя файла C:\Песнопения Великого Поста и Святой Пасхи - ПРАЗДНИКОВ ПРАЗДНИК (S&V-049).wav

Пиковый уровень 94.4 %
Качество диапазона 100.0 %
CRC копии D098769D
Копирование... OK

Ошибок не произошло
Конец отчёта
Download

Войдите на сайт, чтобы увидеть полную информацию.

Как скачивать  ·   Правила трекера

[Профиль]  [ЛС] 

Странник1

Стаж: 8 лет 6 месяцев

Сообщений: 2307

Russia

post 18-Авг-2010 12:28 (спустя 10 месяцев)

[Цитировать] 

Спасибо..
[Профиль]  [ЛС] 

mars1574

Стаж: 4 года 6 месяцев

Сообщений: 33

Russia

post 08-Окт-2017 00:53 (спустя 7 лет 1 месяц)

[Цитировать] 

Спасибo.
[Профиль]  [ЛС] 
Показать сообщения:    
Ответить на тему

Текущее время: 24-Июн 08:57

Часовой пояс: GMT + 4



Вы не можете начинать темы
Вы не можете отвечать на сообщения
Вы не можете редактировать свои сообщения
Вы не можете удалять свои сообщения
Вы не можете голосовать в опросах
Вы не можете прикреплять файлы к сообщениям
Вы не можете скачивать файлы