Loading...
Error

(Церковная музыка и церковные хоры (lossless).) "Соловецкий монастырь". Хор братии Спасо-Преображенского Соловецкого ставропигиального мужского монастыря. (3CD). - 2007, APE (image + .cue), lossless

Ответить на тему
Статистика раздачи
   
 
Автор Сообщение

СЕРГУЛЕТ

Стаж: 9 лет 4 месяца

Сообщений: 2637

Откуда: LA ROMANA

Dominicanrep

post 18-Окт-2009 08:55

[Цитировать] 

"Соловецкий монастырь". Хор братии Спасо-Преображенского Соловецкого ставропигиального мужского монастыря. (3CD).

pic
Страна: Россия. Спасо-Преображенский Соловецкий ставропигиальный мужской монастырь.
Жанр: Церковная музыка и церковные хоры (lossless).
Год выпуска: 2007
Формат: APE (image + .cue)
Битрейт аудио: lossless
Продолжительность: 01:18:43+01:11:10+01:01:22
Обложки+Содержание
picpic
Дополнительная информация: CD1- Монастырские песнопения Соловецкой обители.
CD2- Акафист преподобным Зосиме, Савватию и Герману, Соловецким чудотворцам.
CD3- Житие преподобных Зосимы, Савватия и Германа, Соловецких чудотворцев.
EAC log
Exact Audio Copy V0.99 prebeta 5 from 4. May 2009

Отчёт EAC об извлечении, выполненном 18. октября 2009, 0:11

Хор Соловецкого монастыря / Монастырские песнопения Соловецкой обители

Дисковод: ASUS BC-1205PT Adapter: 1 ID: 0

Режим чтения : Достоверность
Использование точного потока : Да
Отключение кэша аудио : Да
Использование указателей C2 : Нет

Коррекция смещения при чтении : 667
Способность читать области Lead-in и Lead-out : Нет
Заполнение пропущенных сэмплов тишиной : Да
Удаление блоков с тишиной в начале и конце : Нет
При вычислениях CRC использовались нулевые сэмплы : Да
Интерфейс : Встроенный Win32-интерфейс для Win NT/2000

Выходной формат : Внутренние WAV-операции
Формат сэмплов : 44.100 Гц; 16 бит; стерео

TOC извлечённого CD

Трек | Старт | Длительность | Начальный сектор | Конечный сектор
---------------------------------------------------------------------
1 | 0:00.00 | 0:51.66 | 0 | 3890
2 | 0:51.66 | 0:57.03 | 3891 | 8168
3 | 1:48.69 | 4:23.39 | 8169 | 27932
4 | 6:12.33 | 1:36.11 | 27933 | 35143
5 | 7:48.44 | 2:30.19 | 35144 | 46412
6 | 10:18.63 | 1:35.46 | 46413 | 53583
7 | 11:54.34 | 1:30.02 | 53584 | 60335
8 | 13:24.36 | 4:42.56 | 60336 | 81541
9 | 18:07.17 | 4:57.56 | 81542 | 103872
10 | 23:04.73 | 2:05.04 | 103873 | 113251
11 | 25:10.02 | 2:20.05 | 113252 | 123756
12 | 27:30.07 | 2:00.38 | 123757 | 132794
13 | 29:30.45 | 4:58.59 | 132795 | 155203
14 | 34:29.29 | 2:07.60 | 155204 | 164788
15 | 36:37.14 | 4:18.32 | 164789 | 184170
16 | 40:55.46 | 5:32.10 | 184171 | 209080
17 | 46:27.56 | 5:44.55 | 209081 | 234935
18 | 52:12.36 | 2:16.68 | 234936 | 245203
19 | 54:29.29 | 10:42.36 | 245204 | 293389
20 | 65:11.65 | 7:12.06 | 293390 | 325795
21 | 72:23.71 | 4:03.07 | 325796 | 344027
22 | 76:27.03 | 2:14.45 | 344028 | 354122

Характеристики диапазона извлечения и сообщения об ошибках

Выбранный диапазон

Имя файла C:\Хор Соловецкого монастыря - Монастырские песнопения Соловецкой обители.wav

Пиковый уровень 99.8 %
Качество диапазона 99.9 %
CRC копии 3E049506
Копирование... OK

Ошибок не произошло

CD2.
Exact Audio Copy V0.99 prebeta 5 from 4. May 2009

Отчёт EAC об извлечении, выполненном 18. октября 2009, 0:25

Хор Соловецкого монастыря / Акафист преподоным Зосиме, Савватию и Герману, Соловецким

Дисковод: ASUS BC-1205PT Adapter: 1 ID: 0

Режим чтения : Достоверность
Использование точного потока : Да
Отключение кэша аудио : Да
Использование указателей C2 : Нет

Коррекция смещения при чтении : 667
Способность читать области Lead-in и Lead-out : Нет
Заполнение пропущенных сэмплов тишиной : Да
Удаление блоков с тишиной в начале и конце : Нет
При вычислениях CRC использовались нулевые сэмплы : Да
Интерфейс : Встроенный Win32-интерфейс для Win NT/2000

Выходной формат : Внутренние WAV-операции
Формат сэмплов : 44.100 Гц; 16 бит; стерео

TOC извлечённого CD

Трек | Старт | Длительность | Начальный сектор | Конечный сектор
---------------------------------------------------------------------
1 | 0:00.00 | 1:00.51 | 0 | 4550
2 | 1:00.51 | 3:15.64 | 4551 | 19239
3 | 4:16.40 | 56:14.62 | 19240 | 272351
4 | 60:31.27 | 2:22.37 | 272352 | 283038
5 | 62:53.64 | 1:55.46 | 283039 | 291709
6 | 64:49.35 | 2:35.06 | 291710 | 303340
7 | 67:24.41 | 2:22.02 | 303341 | 313992
8 | 69:46.43 | 1:22.17 | 313993 | 320159

Характеристики диапазона извлечения и сообщения об ошибках

Выбранный диапазон

Имя файла C:\Хор Соловецкого монастыря - Акафист преподоным Зосиме, Савватию и Герману, Соловецким.wav

Пиковый уровень 96.1 %
Качество диапазона 100.0 %
CRC копии 6837F436
Копирование... OK

Ошибок не произошло

CD3.
Exact Audio Copy V0.99 prebeta 5 from 4. May 2009

Отчёт EAC об извлечении, выполненном 18. октября 2009, 4:46

Хор Соловецкого монастыря / Житие преподобных Зосимы, Савватия и Германа, Соловецких чудотворцев

Дисковод: ASUS BC-1205PT Adapter: 1 ID: 0

Режим чтения : Достоверность
Использование точного потока : Да
Отключение кэша аудио : Да
Использование указателей C2 : Нет

Коррекция смещения при чтении : 667
Способность читать области Lead-in и Lead-out : Нет
Заполнение пропущенных сэмплов тишиной : Да
Удаление блоков с тишиной в начале и конце : Нет
При вычислениях CRC использовались нулевые сэмплы : Да
Интерфейс : Встроенный Win32-интерфейс для Win NT/2000

Выходной формат : Внутренние WAV-операции
Формат сэмплов : 44.100 Гц; 16 бит; стерео

TOC извлечённого CD

Трек | Старт | Длительность | Начальный сектор | Конечный сектор
---------------------------------------------------------------------
1 | 0:00.00 | 5:54.63 | 0 | 26612
2 | 5:54.63 | 14:25.53 | 26613 | 91540
3 | 20:20.41 | 24:02.74 | 91541 | 199764
4 | 44:23.40 | 7:04.22 | 199765 | 231586
5 | 51:27.62 | 9:52.69 | 231587 | 276055

Характеристики диапазона извлечения и сообщения об ошибках

Выбранный диапазон

Имя файла C:\Хор Соловецкого монастыря - Житие преподобных Зосимы, Савватия и Германа, Соловецких чудотворцев.wav

Пиковый уровень 82.2 %
Качество диапазона 100.0 %
CRC копии AF19E52C
Копирование... OK

Ошибок не произошло
Конец отчёта
Download

Войдите на сайт, чтобы увидеть полную информацию.

Как скачивать  ·   Правила трекера



Последний раз редактировалось: СЕРГУЛЕТ (2011-07-02 08:50), всего редактировалось 1 раз
[Профиль]  [ЛС] 

ladyhawk

post 25-Авг-2010 00:02 (спустя 10 месяцев)

[Цитировать] 

Здравствуйте! Встаньте, пожалуйста, на раздачу. Очень нравится этот хор. Спаси вас Господи.
 

Странник1

Стаж: 8 лет 6 месяцев

Сообщений: 2307

Russia

post 25-Авг-2010 12:25 (спустя 12 часов)

[Цитировать] 

Спасибо
[Профиль]  [ЛС] 

Мишанька

Стаж: 7 лет 8 месяцев

Сообщений: 21

Russia

post 26-Сен-2010 22:28 (спустя 1 месяц 1 день)

[Цитировать] 

Я вас очень благодарю спаси вас Господи

_________________
мир
[Профиль]  [ЛС] 

sinner7

Стаж: 8 лет

Сообщений: 242

post 13-Окт-2010 22:46 (спустя 17 дней)

[Цитировать] 

Храни Вас ГОСПОДЬ!
[Профиль]  [ЛС] 

ziper174

post 11-Сен-2011 12:12 (спустя 10 месяцев)

[Цитировать] 

Хотелось бы скачать близкое к "сегодняшнему дню", записи. Может кто с диктофоном ездил на Соловки?
 

mars1574

Стаж: 4 года 6 месяцев

Сообщений: 33

Russia

post 07-Окт-2017 22:05 (спустя 6 лет)

[Цитировать] 

Спaси Гocподи
[Профиль]  [ЛС] 
Показать сообщения:    
Ответить на тему

Текущее время: 24-Июн 09:15

Часовой пояс: GMT + 4



Вы не можете начинать темы
Вы не можете отвечать на сообщения
Вы не можете редактировать свои сообщения
Вы не можете удалять свои сообщения
Вы не можете голосовать в опросах
Вы не можете прикреплять файлы к сообщениям
Вы не можете скачивать файлы