Loading...
Error

(Церковная музыка и церковные хоры (lossless).) «Двунадесятые праздники». "Богоявление. Крещение Господне". Иеродиакон Герман (Рябцев). (2 CD). - 2004, APE (image + .cue), lossless

Ответить на тему
Статистика раздачи
   
 
Автор Сообщение

СЕРГУЛЕТ

Стаж: 9 лет 4 месяца

Сообщений: 2637

Откуда: LA ROMANA

Dominicanrep

post 15-Фев-2010 15:08

[Цитировать] 

«Двунадесятые праздники». "Богоявление. Крещение Господне". Иеродиакон Герман (Рябцев). (2 CD).

pic
Страна: Россия. Продюсерский центр Игоря Матвиенко.
Жанр: Церковная музыка и церковные хоры (lossless).
Год выпуска: 2004
Формат: APE (image + .cue)
Битрейт аудио: lossless
Продолжительность: 00:46:29+00:44:06
Трэклист:
ДИСК I
На вечерне:
1. «Господи, воззвах…» [с псалмами] (глас 2****)
2. Стихиры на «Господи, воззвах…» (глас 2*)
«Просветителя нашего…»
«Иорданския струи…»
«Спасти хотя заблудшаго человека…»
3. «Слава, и ныне…»
«Приклонил еси главу Предтече…» (глас 2*)
4. «Свете тихий…» (глас 2*)
5. Паремии с тропарями**
На повечерии:
6. «С нами Бог…» (глас 8**)
7. «День прешед…» (глас 8****)
8. Символ веры

ДИСК II
На утрене:
1. «Бог Господь…» (глас 1****)
Тропарь праздника «Во Иордане крещающуся Тебе, Господи…» (глас 1**)
2. Полиелей***
3. Величание**
4. Седален «Приидите, увидим, вернии, где крестися Христос…»
5. «От юности моея…» (глас 4***/****)
6. Чин Евангелия (глас 4**/****)
Канон глас 2*/** (катавасии глас 1, напев Троице-Сергиевой Лавры с исоном)
7. Песнь 1
8. Ипакои глас 5*****
9. Песнь 6
10. Кондак «Явился еси днесь вселенней…» (глас 4**)
Икос «Галилеи язычестей…»
11. Песнь 9
12. «Всякое дыхание…» (глас 1****)
13. Стихира на хвалитех «Свет от света…» (глас 1*****)
14. «Водами Иорданскими…» (глас 6**)

* знаменный распев
** знаменный распев с исоном
*** валаамский распев
**** валаамский распев с исоном
***** малый знаменный распев с исоном
Дополнительная информация: Крещение – один из Двунадесятых праздников Русской Православной Церкви. В этот день Христос пришел к Иоанну Предтече, проповедовавшему на берегах Иордана, чтобы креститься от него. Когда Иисус выходил из воды, небо над ним разверзлось, и Иоанн увидел Духа Святого, нисходящего на Иисуса в виде голубя. Раздался голос Бога Отца, говорящий: «Это – Мой возлюбленный Сын, в Котором Моё благоволение». Так Иоанн Креститель понял, что перед ним ожидаемый мессия, Сын Божий.
На диске представлены избранные песнопения праздничных богослужений, а также освящения воды, которое в эти дни совершается особым Великим чином: в храме, на реках или на источниках. В благоговейном исполнении иеродиакона Германа (Рябцева) звучат такие песнопения, как "Во Иордане крещающуся Тебе, Господи» и др., в валаамском и знаменном распевах.

Чтение Евангелия-иерей Ростислав Перебейнос.
Записано в домашней студии.
2003 год.
EAC log
Exact Audio Copy V0.99 prebeta 5 from 4. May 2009

Отчёт EAC об извлечении, выполненном 14. февраля 2010, 23:51

Иеродиакон Герман (Рябцев) / Богоявление - Крещение Господне-1

Дисковод: ASUS DRW-2014L1T Adapter: 0 ID: 1

Режим чтения : Скоростной

Коррекция смещения при чтении : 6
Способность читать области Lead-in и Lead-out : Нет
Заполнение пропущенных сэмплов тишиной : Да
Удаление блоков с тишиной в начале и конце : Нет
При вычислениях CRC использовались нулевые сэмплы : Да
Интерфейс : Встроенный Win32-интерфейс для Win NT/2000

Выходной формат : Внутренние WAV-операции
Формат сэмплов : 44.100 Гц; 16 бит; стерео

TOC извлечённого CD

Трек | Старт | Длительность | Начальный сектор | Конечный сектор
---------------------------------------------------------------------
1 | 0:00.00 | 3:53.57 | 0 | 17531
2 | 3:53.57 | 6:13.26 | 17532 | 45532
3 | 10:07.08 | 1:20.64 | 45533 | 51596
4 | 11:27.72 | 3:04.36 | 51597 | 65432
5 | 14:32.33 | 14:09.69 | 65433 | 129176
6 | 28:42.27 | 10:32.45 | 129177 | 176621
7 | 39:14.72 | 2:57.11 | 176622 | 189907
8 | 42:12.08 | 1:54.51 | 189908 | 198508

Характеристики диапазона извлечения и сообщения об ошибках

Выбранный диапазон

Имя файла C:\Иеродиакон Герман (Рябцев) - Богоявление - Крещение Господне-1.wav

Проблемы синхронизации 0:00:38
Проблемы синхронизации 0:35:18

Пиковый уровень 98.8 %
CRC копии B8742208
Копирование завершено

Ошибок не произошло

Конец отчёта
cd2.
Exact Audio Copy V0.99 prebeta 5 from 4. May 2009

Отчёт EAC об извлечении, выполненном 14. февраля 2010, 23:54

Иеродиакон Герман (Рябцев) / Богоявление - Крещение Господне-2

Дисковод: ASUS DRW-2014L1T Adapter: 0 ID: 1

Режим чтения : Скоростной

Коррекция смещения при чтении : 6
Способность читать области Lead-in и Lead-out : Нет
Заполнение пропущенных сэмплов тишиной : Да
Удаление блоков с тишиной в начале и конце : Нет
При вычислениях CRC использовались нулевые сэмплы : Да
Интерфейс : Встроенный Win32-интерфейс для Win NT/2000

Выходной формат : Внутренние WAV-операции
Формат сэмплов : 44.100 Гц; 16 бит; стерео

TOC извлечённого CD

Трек | Старт | Длительность | Начальный сектор | Конечный сектор
---------------------------------------------------------------------
1 | 0:00.00 | 3:58.26 | 0 | 17875
2 | 3:58.26 | 6:00.35 | 17876 | 44910
3 | 9:58.61 | 0:52.70 | 44911 | 48880
4 | 10:51.56 | 0:41.58 | 48881 | 52013
5 | 11:33.39 | 0:54.13 | 52014 | 56076
6 | 12:27.52 | 3:23.39 | 56077 | 71340
7 | 15:51.16 | 5:13.64 | 71341 | 94879
8 | 21:05.05 | 0:59.34 | 94880 | 99338
9 | 22:04.39 | 5:37.11 | 99339 | 124624
10 | 27:41.50 | 2:22.27 | 124625 | 135301
11 | 30:04.02 | 10:51.49 | 135302 | 184175
12 | 40:55.51 | 3:00.11 | 184176 | 197686
13 | 43:55.62 | 0:30.23 | 197687 | 199959
14 | 44:26.10 | 2:03.22 | 199960 | 209206

Характеристики диапазона извлечения и сообщения об ошибках

Выбранный диапазон

Имя файла C:\Иеродиакон Герман (Рябцев) - Богоявление - Крещение Господне-2.wav

Проблемы синхронизации 0:00:39

Пиковый уровень 98.8 %
CRC копии 5E41D332
Копирование завершено

Ошибок не произошло

Конец отчёта
Download

Войдите на сайт, чтобы увидеть полную информацию.

Как скачивать  ·   Правила трекера

[Профиль]  [ЛС] 

сервп62

Стаж: 9 лет 4 месяца

Сообщений: 303

post 26-Фев-2010 14:24 (спустя 10 дней)

[Цитировать] 

Расжал Monkey’s Audio файл "Иеродиакон Герман (Рябцев) - Богоявление - Крещение Господне-1.ape" в wav-файл (полученный размер - 466 893 212 байт), при попытке прожига диска ImgBurn выдает больший размер и количество секторов (по TOC извлечённого CD секторов - 198508)
pic
Содержание cue-файла (строки INDEX 00) не соответствует wav-файлу
[Профиль]  [ЛС] 

СЕРГУЛЕТ

Стаж: 9 лет 4 месяца

Сообщений: 2637

Откуда: LA ROMANA

Dominicanrep

post 02-Мар-2010 18:35 (спустя 4 дня)

[Цитировать] 

У меня все соответствует. Smile
[Профиль]  [ЛС] 

Владимир Лухов

Стаж: 7 лет 9 месяцев

Сообщений: 110

Откуда: Саратов

Russia

post 16-Мар-2011 20:42 (спустя 1 год)

[Цитировать] 

Благодарю

_________________
С уважением. Владимир.
[Профиль]  [ЛС] 

kggs

Стаж: 7 лет 4 месяца

Сообщений: 1

Откуда: Набережные Челны

Russia

post 18-Янв-2012 17:12 (спустя 10 месяцев)

[Цитировать] 

CUE действительно не соответствует файлу
[Профиль]  [ЛС] 

mars1574

Стаж: 4 года 5 месяцев

Сообщений: 33

Russia

post 07-Окт-2017 14:03 (спустя 5 лет 8 месяцев)

[Цитировать] 

Блaгодарю
[Профиль]  [ЛС] 
Показать сообщения:    
Ответить на тему

Текущее время: 20-Июн 05:46

Часовой пояс: GMT + 4



Вы не можете начинать темы
Вы не можете отвечать на сообщения
Вы не можете редактировать свои сообщения
Вы не можете удалять свои сообщения
Вы не можете голосовать в опросах
Вы не можете прикреплять файлы к сообщениям
Вы не можете скачивать файлы