Loading...
Error

(Церковная музыка и церковные хоры (lossless).) Сергей Рахманинов - "Всенощное бдение. Литургия". (2CD). - 2003, FLAC (tracks), lossless

Ответить на тему
Статистика раздачи
   
 
Автор Сообщение

СЕРГУЛЕТ

Стаж: 9 лет 8 месяцев

Сообщений: 2637

Откуда: LA ROMANA

Dominicanrep

post 10-Июл-2011 09:58

[Цитировать] 

Сергей Рахманинов - "Всенощное бдение. Литургия". (2CD).

pic
Страна: Germany. "Philips".
Жанр: Церковная музыка и церковные хоры (lossless).
Год выпуска: 2003
Формат: FLAC (tracks)
Битрейт аудио: lossless
Продолжительность: 127 минут.
Трэклист:
CD1.
Vespers, Op.37
1. "Priidite, poklonimsya"
2. "Blagoslovi dushe moya"
3. "Blazhen muzh"
4. "Svete tikhyi"
5. "Nyne otpushchayeshi"
6. "Bogoroditse Devo"
7. "Slava v vyshnikh Bogu"
8. "Kvalite imya Gospodne"
9. "Blagosloven esi, Gospodi"
10. "Voskreseniye Khristovo videvshe"
11. "Velichit dusha moya Gospoda"
12. "Slava v vyshnikh Bogu"
13. "Dnes spaseniye"
14. "Voskrez iz groba"
15. "Vzbrannoy voevode"

CD2.
Liturgy of St. John Chrysostom, Op.31
01. First Antiphon
02. Second Antiphon
03. Third Antiphon
04. Little Entrance
05. Trisagion
06. Great Entrance
07. Litany of Supplication
08. Creed
09. Eucharistic Prayer
10. We praise Thee
11. Hymn to the Mother of God
12. Lord's Prayer
13. And with thy Spirit / One is Holy
14. Communion Hymn
15. Communion of the Faithful
16. Let our mouths be filled
17. Blessed be the Name
18. Glory
Дополнительная информация: Olga Borodina, mezzo-soprano, Natalia Kornieva, soprano
Vladimir Mostowoy, Alexander Ranne, tenors, Sergey Tsipcalo, baritone
St. Peterburg Chamber Choir, Nikolai Korniev.
EAC log
Exact Audio Copy V0.99 prebeta 5 from 4. May 2009

EAC extraction logfile from 9. July 2011, 11:22

Borodina - Mostovoy - Korniev - St Petersburg Chamber Choir / Vespers (All-Night Vigil)

Used drive : _NEC DVD_RW ND-3570A Adapter: 3 ID: 1

Read mode : Secure
Utilize accurate stream : Yes
Defeat audio cache : Yes
Make use of C2 pointers : No

Read offset correction : 48
Overread into Lead-In and Lead-Out : No
Fill up missing offset samples with silence : Yes
Delete leading and trailing silent blocks : No
Null samples used in CRC calculations : Yes
Used interface : Installed external ASPI interface
Gap handling : Appended to previous track

Used output format : User Defined Encoder
Selected bitrate : 128 kBit/s
Quality : High
Add ID3 tag : No
Command line compressor : C:\Program Files\Exact Audio Copy\Flac\flac.exe
Additional command line options : -8 -V -T "ARTIST=%a" -T "TITLE=%t" -T "ALBUM=%g" -T "DATE=%y" -T "TRACKNUMBER=%n" -T "GENRE=%m" -T "COMMENT=EAC FLAC -8" %s

TOC of the extracted CD

Track | Start | Length | Start sector | End sector
---------------------------------------------------------
1 | 0:00.33 | 1:58.00 | 33 | 8882
2 | 1:58.33 | 5:10.00 | 8883 | 32132
3 | 7:08.33 | 3:49.00 | 32133 | 49307
4 | 10:57.33 | 3:10.00 | 49308 | 63557
5 | 14:07.33 | 3:45.00 | 63558 | 80432
6 | 17:52.33 | 2:37.00 | 80433 | 92207
7 | 20:29.33 | 2:59.00 | 92208 | 105632
8 | 23:28.33 | 1:53.00 | 105633 | 114107
9 | 25:21.33 | 5:37.00 | 114108 | 139382
10 | 30:58.33 | 2:52.00 | 139383 | 152282
11 | 33:50.33 | 7:22.00 | 152283 | 185432
12 | 41:12.33 | 7:47.00 | 185433 | 220457
13 | 48:59.33 | 2:13.00 | 220458 | 230432
14 | 51:12.33 | 3:40.20 | 230433 | 246952
15 | 54:52.53 | 1:26.55 | 246953 | 253457

Track 1

Filename F:\Exact Audio Copy\Rachmaninov - Vespers & Liturgy - Korniev\01 - Priidite, poklonimsya.wav

Pre-gap length 0:00:02.44

Peak level 91.4 %
Track quality 100.0 %
Test CRC 1E557912
Copy CRC 1E557912
Accurately ripped (confidence Cool [B2AC83D4]
Copy OK

Track 2

Filename F:\Exact Audio Copy\Rachmaninov - Vespers & Liturgy - Korniev\02 - Blagoslovi, dushe moya (Greek melody).wav

Pre-gap length 0:00:02.00

Peak level 15.8 %
Track quality 100.0 %
Test CRC 1C397563
Copy CRC 1C397563
Accurately ripped (confidence Cool [D0666D54]
Copy OK

Track 3

Filename F:\Exact Audio Copy\Rachmaninov - Vespers & Liturgy - Korniev\03 - Blazhen muzh.wav

Pre-gap length 0:00:04.00

Peak level 46.7 %
Track quality 100.0 %
Test CRC 18DE4F0E
Copy CRC 18DE4F0E
Accurately ripped (confidence Cool [29C32B21]
Copy OK

Track 4

Filename F:\Exact Audio Copy\Rachmaninov - Vespers & Liturgy - Korniev\04 - Svete tikhyi (Kievan melody).wav

Pre-gap length 0:00:02.00

Peak level 47.9 %
Track quality 100.0 %
Test CRC 6860E2BF
Copy CRC 6860E2BF
Accurately ripped (confidence Cool [D550FA6B]
Copy OK

Track 5

Filename F:\Exact Audio Copy\Rachmaninov - Vespers & Liturgy - Korniev\05 - Nyne otpushchayeshi (Kievan melody).wav

Pre-gap length 0:00:03.00

Peak level 98.4 %
Track quality 100.0 %
Test CRC 0317520E
Copy CRC 0317520E
Accurately ripped (confidence Cool [9D870E9E]
Copy OK

Track 6

Filename F:\Exact Audio Copy\Rachmaninov - Vespers & Liturgy - Korniev\06 - Bogoroditse Devo.wav

Pre-gap length 0:00:02.00

Peak level 58.9 %
Track quality 100.0 %
Test CRC 604B99B7
Copy CRC 604B99B7
Accurately ripped (confidence Cool [88446576]
Copy OK

Track 7

Filename F:\Exact Audio Copy\Rachmaninov - Vespers & Liturgy - Korniev\07 - Slava v vyshnikh Bogu.wav

Pre-gap length 0:00:03.00

Peak level 55.3 %
Track quality 99.9 %
Test CRC 153928DA
Copy CRC 153928DA
Accurately ripped (confidence Cool [D5D238EF]
Copy OK

Track 8

Filename F:\Exact Audio Copy\Rachmaninov - Vespers & Liturgy - Korniev\08 - Khvalite imya Gospodne (Znamenny chant).wav

Pre-gap length 0:00:02.00

Peak level 96.8 %
Track quality 100.0 %
Test CRC 29734832
Copy CRC 29734832
Accurately ripped (confidence Cool [D04AAAB6]
Copy OK

Track 9

Filename F:\Exact Audio Copy\Rachmaninov - Vespers & Liturgy - Korniev\09 - Blagosloven esi, Gospodi (Znamenny chant).wav

Pre-gap length 0:00:01.00

Peak level 100.0 %
Track quality 100.0 %
Test CRC A7F6E3AA
Copy CRC A7F6E3AA
Accurately ripped (confidence 7) [6194064E]
Copy OK

Track 10

Filename F:\Exact Audio Copy\Rachmaninov - Vespers & Liturgy - Korniev\10 - Voskreseniye Khristovo videvshe.wav

Pre-gap length 0:00:02.00

Peak level 97.6 %
Track quality 99.9 %
Test CRC D356F4C5
Copy CRC D356F4C5
Accurately ripped (confidence Cool [83B2205B]
Copy OK

Track 11

Filename F:\Exact Audio Copy\Rachmaninov - Vespers & Liturgy - Korniev\11 - Velichit dusha moya Gospoda.wav

Peak level 95.3 %
Track quality 100.0 %
Test CRC 00E1569B
Copy CRC 00E1569B
Accurately ripped (confidence Cool [342CA190]
Copy OK

Track 12

Filename F:\Exact Audio Copy\Rachmaninov - Vespers & Liturgy - Korniev\12 - Slava v vyshnikh Bogu (Znamenny chant).wav

Pre-gap length 0:00:04.00

Peak level 100.0 %
Track quality 100.0 %
Test CRC E3B82947
Copy CRC E3B82947
Accurately ripped (confidence Cool [C9EFDBC5]
Copy OK

Track 13

Filename F:\Exact Audio Copy\Rachmaninov - Vespers & Liturgy - Korniev\13 - Dnes spaseniye (Znamenny chant).wav

Pre-gap length 0:00:03.00

Peak level 100.0 %
Track quality 100.0 %
Test CRC DC7BD708
Copy CRC DC7BD708
Accurately ripped (confidence Cool [8E124A0C]
Copy OK

Track 14

Filename F:\Exact Audio Copy\Rachmaninov - Vespers & Liturgy - Korniev\14 - Voskrez iz groba (Znamenny chant).wav

Pre-gap length 0:00:01.00

Peak level 44.7 %
Track quality 100.0 %
Test CRC 925139BE
Copy CRC 925139BE
Accurately ripped (confidence Cool [FD8673C8]
Copy OK

Track 15

Filename F:\Exact Audio Copy\Rachmaninov - Vespers & Liturgy - Korniev\15 - Vzbrannoy voevode (Greek melody).wav

Peak level 89.9 %
Track quality 100.0 %
Test CRC 3B1AC4CE
Copy CRC 3B1AC4CE
Accurately ripped (confidence Cool [408E14CC]
Copy OK

All tracks accurately ripped

No errors occurred

End of status report

CD2.
Exact Audio Copy V0.99 prebeta 5 from 4. May 2009

EAC extraction logfile from 9. July 2011, 13:54

Rachmaninoff / Liturgy of St John Chrysostom

Used drive : _NEC DVD_RW ND-3570A Adapter: 3 ID: 1

Read mode : Secure
Utilize accurate stream : Yes
Defeat audio cache : Yes
Make use of C2 pointers : No

Read offset correction : 48
Overread into Lead-In and Lead-Out : No
Fill up missing offset samples with silence : Yes
Delete leading and trailing silent blocks : No
Null samples used in CRC calculations : Yes
Used interface : Installed external ASPI interface
Gap handling : Appended to previous track

Used output format : User Defined Encoder
Selected bitrate : 128 kBit/s
Quality : High
Add ID3 tag : No
Command line compressor : C:\Program Files\Exact Audio Copy\Flac\flac.exe
Additional command line options : -8 -V -T "ARTIST=%a" -T "TITLE=%t" -T "ALBUM=%g" -T "DATE=%y" -T "TRACKNUMBER=%n" -T "GENRE=%m" -T "COMMENT=EAC FLAC -8" %s

TOC of the extracted CD

Track | Start | Length | Start sector | End sector
---------------------------------------------------------
1 | 0:00.32 | 4:40.00 | 32 | 21031
2 | 4:40.32 | 2:43.00 | 21032 | 33256
3 | 7:23.32 | 6:03.00 | 33257 | 60481
4 | 13:26.32 | 1:53.00 | 60482 | 68956
5 | 15:19.32 | 3:40.00 | 68957 | 85456
6 | 18:59.32 | 7:09.00 | 85457 | 117631
7 | 26:08.32 | 4:00.00 | 117632 | 135631
8 | 30:08.32 | 5:51.00 | 135632 | 161956
9 | 35:59.32 | 6:52.00 | 161957 | 192856
10 | 42:51.32 | 3:42.00 | 192857 | 209506
11 | 46:33.32 | 3:13.00 | 209507 | 223981
12 | 49:46.32 | 5:21.55 | 223982 | 248111
13 | 55:08.12 | 2:25.20 | 248112 | 259006
14 | 57:33.32 | 2:00.00 | 259007 | 268006
15 | 59:33.32 | 2:24.00 | 268007 | 278806
16 | 61:57.32 | 5:33.38 | 278807 | 303819
17 | 67:30.70 | 0:41.12 | 303820 | 306906
18 | 68:12.07 | 3:06.25 | 306907 | 320881

Track 1

Filename F:\Exact Audio Copy\Rachmaninov - Vespers & Liturgy - Korniev\CD2\01 - First Antiphon.wav

Pre-gap length 0:00:02.42

Peak level 36.5 %
Track quality 100.0 %
Test CRC 5F830954
Copy CRC 5F830954
Cannot be verified as accurate (confidence 5) [55E1A925], AccurateRip returned [11CE8C8B]
Copy OK

Track 2

Filename F:\Exact Audio Copy\Rachmaninov - Vespers & Liturgy - Korniev\CD2\02 - Second Antiphon.wav

Pre-gap length 0:00:05.00

Peak level 62.6 %
Track quality 100.0 %
Test CRC 5BEC6519
Copy CRC 5BEC6519
Cannot be verified as accurate (confidence 5) [02B245A1], AccurateRip returned [7CD8A40D]
Copy OK

Track 3

Filename F:\Exact Audio Copy\Rachmaninov - Vespers & Liturgy - Korniev\CD2\03 - Third Antiphon.wav

Pre-gap length 0:00:05.00

Peak level 28.5 %
Track quality 100.0 %
Test CRC 13B49898
Copy CRC 13B49898
Cannot be verified as accurate (confidence 3) [49B1C0E7], AccurateRip returned [89217DD3]
Copy OK

Track 4

Filename F:\Exact Audio Copy\Rachmaninov - Vespers & Liturgy - Korniev\CD2\04 - Little Entrance.wav

Pre-gap length 0:00:05.00

Peak level 90.7 %
Track quality 100.0 %
Test CRC 6E050E22
Copy CRC 6E050E22
Cannot be verified as accurate (confidence 5) [48B73106], AccurateRip returned [4CF3D95F]
Copy OK

Track 5

Filename F:\Exact Audio Copy\Rachmaninov - Vespers & Liturgy - Korniev\CD2\05 - Trisagion.wav

Pre-gap length 0:00:04.00

Peak level 71.8 %
Track quality 100.0 %
Test CRC 8684A9A6
Copy CRC 8684A9A6
Cannot be verified as accurate (confidence 5) [E4C14BE4], AccurateRip returned [826143B3]
Copy OK

Track 6

Filename F:\Exact Audio Copy\Rachmaninov - Vespers & Liturgy - Korniev\CD2\06 - Great Entrance.wav

Pre-gap length 0:00:09.00

Peak level 66.2 %
Track quality 99.9 %
Test CRC 9244B2BF
Copy CRC 9244B2BF
Cannot be verified as accurate (confidence 5) [49DB1C4F], AccurateRip returned [6729A222]
Copy OK

Track 7

Filename F:\Exact Audio Copy\Rachmaninov - Vespers & Liturgy - Korniev\CD2\07 - Litany of Supplication.wav

Pre-gap length 0:00:06.00

Peak level 14.9 %
Track quality 100.0 %
Test CRC 3A7EC0FA
Copy CRC 3A7EC0FA
Cannot be verified as accurate (confidence 5) [74BAA359], AccurateRip returned [8EC6F55C]
Copy OK

Track 8

Filename F:\Exact Audio Copy\Rachmaninov - Vespers & Liturgy - Korniev\CD2\08 - Creed.wav

Pre-gap length 0:00:05.00

Peak level 62.8 %
Track quality 99.9 %
Test CRC 693D20BC
Copy CRC 693D20BC
Cannot be verified as accurate (confidence 5) [956048B8], AccurateRip returned [8D62297F]
Copy OK

Track 9

Filename F:\Exact Audio Copy\Rachmaninov - Vespers & Liturgy - Korniev\CD2\09 - Eucharistic Prayer.wav

Pre-gap length 0:00:04.00

Peak level 63.1 %
Track quality 100.0 %
Test CRC C734C314
Copy CRC C734C314
Cannot be verified as accurate (confidence 5) [367BDB02], AccurateRip returned [F902D83B]
Copy OK

Track 10

Filename F:\Exact Audio Copy\Rachmaninov - Vespers & Liturgy - Korniev\CD2\10 - We praise Thee.wav

Pre-gap length 0:00:09.00

Peak level 5.4 %
Track quality 100.0 %
Test CRC BFC075AE
Copy CRC BFC075AE
Cannot be verified as accurate (confidence 5) [018BBAD3], AccurateRip returned [3004241D]
Copy OK

Track 11

Filename F:\Exact Audio Copy\Rachmaninov - Vespers & Liturgy - Korniev\CD2\11 - Hymn to the Mother of God.wav

Pre-gap length 0:00:09.00

Peak level 71.9 %
Track quality 100.0 %
Test CRC 7709BD96
Copy CRC 7709BD96
Cannot be verified as accurate (confidence 5) [9A1871DE], AccurateRip returned [C83A0F82]
Copy OK

Track 12

Filename F:\Exact Audio Copy\Rachmaninov - Vespers & Liturgy - Korniev\CD2\12 - Lord's Prayer.wav

Pre-gap length 0:00:06.00

Peak level 42.7 %
Track quality 99.9 %
Test CRC C6321BAC
Copy CRC C6321BAC
Cannot be verified as accurate (confidence 5) [93225FC4], AccurateRip returned [D7E76980]
Copy OK

Track 13

Filename F:\Exact Audio Copy\Rachmaninov - Vespers & Liturgy - Korniev\CD2\13 - And with thy Spirit , One is Holy.wav

Peak level 59.3 %
Track quality 100.0 %
Test CRC EC8CE458
Copy CRC EC8CE458
Cannot be verified as accurate (confidence 5) [7A170BBD], AccurateRip returned [2664EDC1]
Copy OK

Track 14

Filename F:\Exact Audio Copy\Rachmaninov - Vespers & Liturgy - Korniev\CD2\14 - Communion Hymn.wav

Pre-gap length 0:00:06.00

Peak level 19.7 %
Track quality 100.0 %
Test CRC 302783C8
Copy CRC 302783C8
Cannot be verified as accurate (confidence 5) [A7E7EC38], AccurateRip returned [5AAD8AD8]
Copy OK

Track 15

Filename F:\Exact Audio Copy\Rachmaninov - Vespers & Liturgy - Korniev\CD2\15 - Communion of the Faithful.wav

Pre-gap length 0:00:07.00

Peak level 56.9 %
Track quality 100.0 %
Test CRC 18FAD6E2
Copy CRC 18FAD6E2
Cannot be verified as accurate (confidence 5) [F2906963], AccurateRip returned [398884A0]
Copy OK

Track 16

Filename F:\Exact Audio Copy\Rachmaninov - Vespers & Liturgy - Korniev\CD2\16 - Let our mouths be filled.wav

Pre-gap length 0:00:06.00

Peak level 55.9 %
Track quality 100.0 %
Test CRC D4FC5505
Copy CRC D4FC5505
Cannot be verified as accurate (confidence 5) [E85AAC07], AccurateRip returned [A5E7AB4F]
Copy OK

Track 17

Filename F:\Exact Audio Copy\Rachmaninov - Vespers & Liturgy - Korniev\CD2\17 - Blessed be the Name.wav

Peak level 47.0 %
Track quality 99.7 %
Test CRC 11E99E81
Copy CRC 11E99E81
Cannot be verified as accurate (confidence 5) [14F0D8DD], AccurateRip returned [9DF940A0]
Copy OK

Track 18

Filename F:\Exact Audio Copy\Rachmaninov - Vespers & Liturgy - Korniev\CD2\18 - Glory.wav

Peak level 82.7 %
Track quality 100.0 %
Test CRC 3555FE39
Copy CRC 3555FE39
Cannot be verified as accurate (confidence 5) [41FB7C48], AccurateRip returned [765D4212]
Copy OK

No tracks could be verified as accurate
You may have a different pressing from the one(s) in the database

No errors occurred

End of status report
Download

Войдите на сайт, чтобы увидеть полную информацию.

Как скачивать  ·   Правила трекера

[Профиль]  [ЛС] 

andrew123

Стаж: 7 лет 7 месяцев

Сообщений: 47

post 12-Дек-2011 15:13 (спустя 5 месяцев 2 дня)

[Цитировать] 

Спасибо огромное!!!Особенно Всенощное!


Последний раз редактировалось: andrew123 (2012-07-19 14:11), всего редактировалось 1 раз
[Профиль]  [ЛС] 

Olichka84

post 01-Апр-2012 20:33 (спустя 3 месяца 20 дней)

[Цитировать] 

Благодарю от всей души!
 

shymsknik

Стаж: 7 лет 9 месяцев

Сообщений: 181

Russia

post 18-Апр-2012 14:40 (спустя 16 дней)

[Цитировать] 

Спасибо.
[Профиль]  [ЛС] 

andrew123

Стаж: 7 лет 7 месяцев

Сообщений: 47

post 05-Июл-2012 14:25 (спустя 2 месяца 16 дней)

[Цитировать] 

...
[Профиль]  [ЛС] 

Kostja

Стаж: 6 лет 3 месяца

Сообщений: 10

post 02-Янв-2013 18:53 (спустя 5 месяцев 28 дней)

[Цитировать] 

СЕРГУЛЕТ
Всех Вам благ!!!
[Профиль]  [ЛС] 

nagibin87

Стаж: 1 год 6 месяцев

Сообщений: 1

post 06-Апр-2017 14:24 (спустя 4 года 3 месяца)

[Цитировать] 

Здравствуйте. Встаньте пожалуйста на раздачу. Заранее спасибо.
[Профиль]  [ЛС] 

Egorich13

Стаж: 2 года 9 месяцев

Сообщений: 1

post 23-Июн-2017 12:19 (спустя 2 месяца 16 дней)

[Цитировать] 

Спаси Господи!!!
[Профиль]  [ЛС] 

mars1574

Стаж: 4 года 9 месяцев

Сообщений: 33

Russia

post 22-Сен-2017 23:10 (спустя 2 месяца 29 дней)

[Цитировать] 

Спаси Господи!
[Профиль]  [ЛС] 
Показать сообщения:    
Ответить на тему

Текущее время: 16-Окт 01:16

Часовой пояс: GMT + 4



Вы не можете начинать темы
Вы не можете отвечать на сообщения
Вы не можете редактировать свои сообщения
Вы не можете удалять свои сообщения
Вы не можете голосовать в опросах
Вы не можете прикреплять файлы к сообщениям
Вы не можете скачивать файлы