Loading...
Error

(Церковная музыка и церковные хоры (lossless)) "Да исправится молитва моя..." Литургия Преждеосвященных Даров. (2СD). - 2004, APE (image + .cue), lossless

Ответить на тему
Статистика раздачи
   
 
Автор Сообщение

СЕРГУЛЕТ

Стаж: 9 лет 5 месяцев

Сообщений: 2637

Откуда: LA ROMANA

Dominicanrep

post 19-Окт-2009 22:52

[Цитировать] 

"Да исправится молитва моя..." Литургия Преждеосвященных Даров. (2СD).

pic
Страна: Россия. Издательство Московского Подворья Свято-Троицкой Сергиевой Лавры.
Жанр: Церковная музыка и церковные хоры (lossless)
Год выпуска: 2004
Формат: APE (image + .cue)
Битрейт аудио: lossless
Продолжительность: 00:45:28+00:49:48
Трэклист:
CD1.
1. Чтение предначинательного псалма (103).
2.Великая ектения.
3. Господи воззвах..., Положи, Господи... псалмы 140-141.
4. Прийдите, вернии...
5. Прийдите, мучениколюбцы вси...
6. Кто Тебе не ублажит... догматик.
7. Свете Тихий...
8. Услышит тя Господь...
9. 1-я паремия Триоди.
10. Вознесися, Господи... 2-й прокимен.
11. 2-я паремия Триоди.
12. Да исправится молитва моя...

CD2.
1. Сугубая ектения.
2. Об оглашенных и прочии ектении.
3. Ныне Силы Небесный...
4. Просительная ектения и "Отче наш"...
5. Един Свят, Един Господь...
6. Вкусите и видите...
7. Седе Адам прямо рая...
8. Окончание литургии.
9. Днесь Неприкосновенный существом...
Дополнительная информация: Хор Московского Подворья СТСЛ под управлением Владимира Горбика.
Запись произведена в 2003 году.
В записи принимали участие: Преосвященнейший Лонгин,епископ Саратовский и Вольский, иеромонахи: Филарет (Алеев), Нектарий (Морозов), протодиакон Николай Платонов, иеродиаконы: Тихон (Васильев), Афанасий (Максимов), Кронид (Маленков). Канонарх: П.Греков.
Содержание+Обложки
picpicpic
EAC log
Exact Audio Copy V0.99 prebeta 5 from 4. May 2009

Отчёт EAC об извлечении, выполненном 18. октября 2009, 9:55

Хор Московского Подворья Свято-Троицкой Сергиевой Лавры / Да исправится молитва моя CD1

Дисковод: ASUS BC-1205PT Adapter: 1 ID: 0

Режим чтения : Достоверность
Использование точного потока : Да
Отключение кэша аудио : Да
Использование указателей C2 : Нет

Коррекция смещения при чтении : 667
Способность читать области Lead-in и Lead-out : Нет
Заполнение пропущенных сэмплов тишиной : Да
Удаление блоков с тишиной в начале и конце : Нет
При вычислениях CRC использовались нулевые сэмплы : Да
Интерфейс : Встроенный Win32-интерфейс для Win NT/2000

Выходной формат : Внутренние WAV-операции
Формат сэмплов : 44.100 Гц; 16 бит; стерео

TOC извлечённого CD

Трек | Старт | Длительность | Начальный сектор | Конечный сектор
---------------------------------------------------------------------
1 | 0:00.00 | 4:47.01 | 0 | 21525
2 | 4:47.01 | 5:45.25 | 21526 | 47425
3 | 10:32.26 | 3:37.59 | 47426 | 63759
4 | 14:10.10 | 2:02.70 | 63760 | 72979
5 | 16:13.05 | 2:50.40 | 72980 | 85769
6 | 19:03.45 | 2:55.60 | 85770 | 98954
7 | 21:59.30 | 2:45.16 | 98955 | 111345
8 | 24:44.46 | 1:36.11 | 111346 | 118556
9 | 26:20.57 | 6:03.01 | 118557 | 145782
10 | 32:23.58 | 1:24.35 | 145783 | 152117
11 | 33:48.18 | 3:11.62 | 152118 | 166504
12 | 37:00.05 | 8:26.57 | 166505 | 204511

Характеристики диапазона извлечения и сообщения об ошибках

Выбранный диапазон

Имя файла C:\Хор Московского Подворья Свято-Троицкой Сергиевой Лавры - Да исправится молитва моя CD1.wav

Пиковый уровень 95.2 %
Качество диапазона 100.0 %
CRC копии 20650910
Копирование... OK

Ошибок не произошло

CD2.
Exact Audio Copy V0.99 prebeta 5 from 4. May 2009

Отчёт EAC об извлечении, выполненном 18. октября 2009, 10:05

Хор Московского Подворья Свято-Троицкой Сергиевой Лавры / Да исправится молитва моя CD2

Дисковод: ASUS BC-1205PT Adapter: 1 ID: 0

Режим чтения : Достоверность
Использование точного потока : Да
Отключение кэша аудио : Да
Использование указателей C2 : Нет

Коррекция смещения при чтении : 667
Способность читать области Lead-in и Lead-out : Нет
Заполнение пропущенных сэмплов тишиной : Да
Удаление блоков с тишиной в начале и конце : Нет
При вычислениях CRC использовались нулевые сэмплы : Да
Интерфейс : Встроенный Win32-интерфейс для Win NT/2000

Выходной формат : Внутренние WAV-операции
Формат сэмплов : 44.100 Гц; 16 бит; стерео

TOC извлечённого CD

Трек | Старт | Длительность | Начальный сектор | Конечный сектор
---------------------------------------------------------------------
1 | 0:00.00 | 4:59.33 | 0 | 22457
2 | 4:59.33 | 4:08.11 | 22458 | 41068
3 | 9:07.44 | 6:27.60 | 41069 | 70153
4 | 15:35.29 | 5:51.70 | 70154 | 96548
5 | 21:27.24 | 1:05.26 | 96549 | 101449
6 | 22:32.50 | 2:22.30 | 101450 | 112129
7 | 24:55.05 | 8:09.43 | 112130 | 148847
8 | 33:04.48 | 9:10.29 | 148848 | 190126
9 | 42:15.02 | 7:31.57 | 190127 | 224008

Характеристики диапазона извлечения и сообщения об ошибках

Выбранный диапазон

Имя файла C:\Хор Московского Подворья Свято-Троицкой Сергиевой Лавры - Да исправится молитва моя CD2.wav

Пиковый уровень 97.5 %
Качество диапазона 100.0 %
CRC копии 0848BADA
Копирование... OK

Ошибок не произошло
Конец отчёта
Download

Войдите на сайт, чтобы увидеть полную информацию.

Как скачивать  ·   Правила трекера



Последний раз редактировалось: СЕРГУЛЕТ (2010-11-20 13:31), всего редактировалось 1 раз
[Профиль]  [ЛС] 

bsergey17

Стаж: 8 лет 7 месяцев

Сообщений: 12

Откуда: Украина

Ukraine

post 27-Ноя-2009 12:25 (спустя 1 месяц 7 дней)

[Цитировать] 

Подскажите пожалуйста:
уже несколько дней не начинается закачка
с чем это может быть связано ?
[Профиль]  [ЛС] 

КукА

Стаж: 9 лет 3 месяца

Сообщений: 543

Откуда: Одесса

Ukraine

post 01-Фев-2011 23:57 (спустя 1 год 2 месяца)

[Цитировать] 

Спаси Христос!
[Профиль]  [ЛС] 

devss

Стаж: 8 лет 8 месяцев

Сообщений: 17

Откуда: РФ

Russia

post 02-Дек-2013 19:25 (спустя 2 года 10 месяцев)

[Цитировать] 

прошу раздать
[Профиль]  [ЛС] 

stepan-frunze

Стаж: 9 лет 4 месяца

Сообщений: 2563

Russia

post 02-Дек-2013 23:28 (спустя 4 часа)

[Цитировать] 

Спаси Христос!
[Профиль]  [ЛС] 

Polyakova1972

Стаж: 4 года 9 месяцев

Сообщений: 3

Russia

post 24-Фев-2017 15:28 (спустя 3 года 2 месяца)

[Цитировать] 

Спаси Христос!
[Профиль]  [ЛС] 

Sergey911

Стаж: 11 месяцев

Сообщений: 1

post 02-Сен-2017 16:27 (спустя 6 месяцев)

[Цитировать] 

Кто либо может помочь в скачивании?
Заранее благодарю.
С уважением.
[Профиль]  [ЛС] 

lag48

Стаж: 6 месяцев

Сообщений: 3

Russia

post 25-Янв-2018 19:11 (спустя 4 месяца 23 дня)

[Цитировать] 

Спасибо!
[Профиль]  [ЛС] 
Показать сообщения:    
Ответить на тему

Текущее время: 18-Июл 05:16

Часовой пояс: GMT + 4



Вы не можете начинать темы
Вы не можете отвечать на сообщения
Вы не можете редактировать свои сообщения
Вы не можете удалять свои сообщения
Вы не можете голосовать в опросах
Вы не можете прикреплять файлы к сообщениям
Вы не можете скачивать файлы