Loading...
Error

(Церковная музыка и церковные хоры (lossless).) "Русское церковное пение". Хор Санкт-Петербургского подворья монастыря Оптина Пустынь. - 2004, FLAC (tracks), lossless

Ответить на тему
Статистика раздачи
   
 
Автор Сообщение

СЕРГУЛЕТ

Стаж: 9 лет 6 месяцев

Сообщений: 2637

Откуда: LA ROMANA

Dominicanrep

post 06-Июл-2011 13:31

[Цитировать] 

"Русское церковное пение". Хор Санкт-Петербургского подворья монастыря Оптина Пустынь.

pic
Страна: Россия.
Жанр: Церковная музыка и церковные хоры (lossless).
Год выпуска: 2004
Формат: FLAC (tracks)
Битрейт аудио: lossless
Продолжительность: 01:02:23
Трэклист:
1. Достойно есть. Византийский распев соло – Д. Попов [01:34]
2. Херувимская песнь. Староболгарский распев – игумен Силуан [05:42]
3. Воспойте людие. Знаменный распев [01:47]
4. Величание преподобному Сергию, игумену Радонежскому. Путевой распев [01:11]
5. Тебе одеющагося. Болгарский распев [04:25]
6. Достойно и праведно есть. Строчное пение [01:09]
7. Возбранной Воеводе. Знаменное многоголосие – Греческий распев [01:25]
8. Свете тихий. Знаменное многоголосие – Греческий распев [02:31]
9. Совет превечный. Ранний партес – Знаменный распев [04:39]
10. Милость мира. Ранний партес – Греческий распев [04:56]
11. Достойно есть. Ранний партес – Киевский распев [02:13]
12. Херувимская песнь. Д. С. Бортнянский [04:44]
13. Небесных чинов радование. Подобен Оптиной Пустыни [00:58]
14. Ангел вопияше. М. П. Мусоргский [01:45]
15. Господи сил, с нами буди. Знаменный распев – А. А. Архангельский [07:17]
16. Благослови, душе моя, Господа. Греческий распев – С. В. Рахманинов соло – Д. Попов [05:11]
17. Слава в Вышних Богу. Греческий распев – С. В. Рахманинов [02:35]
18. Отче наш. Н. Н. Кедров-отец [01:51]
19. Богородице Дево, радуйся. Распев Почаевской Лавры [01:23]
20. Дева днесь. Валаамский распев – К. Н. Никитин [02:24]
21. Да возрадуется душа твоя о Господе. Диакон С. Трубачёв [02:43]
Дополнительная информация: Запись произведена в храме Успения Пресвятой Богородицы на Санкт-Петербургском Подворье монастыря Свято-Введенская Оптина Пустынь Петербургской Студией Грамзаписи в феврале 2004 года.
Руководитель хора: Александр Семенов, автор аранжировок церковных и светских музыкальных произведений, составитель полной Постной Триоди для однородного хора.
EAC log
Отчёт EAC об извлечении, выполненном 18. мая 2007, 0:05 для диска:
Хор Александра Семёнова / Русское церковное пение

Дисковод: PLEXTOR DVDR PX-716A Adapter: 1 ID: 1
Режим чтения: Достоверный (C2: нет, Точный поток: да, Отключение кэша: да)
Коррекция смещения при чтении: 30
Способность читать области Lead-in и Lead-out : Да

Выходной формат: C:\Program Files (x86)\FLAC\flac.exe (Пользовательский кодировщик)
320 kBit/s
Дополнительные параметры: -V -8 -T "artist=%a" -T "title=%t" -T "album=%g" -T "date=%y" -T "tracknumber=%n" -T "genre=%m" %s

Другие параметры:
Заполнение пропущенных сэмплов тишиной : Да
Удаление блоков с тишиной в начале и конце : Нет
Встроенный Win32-интерфейс для Win NT/2000

Трек 1
Имя файла C:\Music\Хор Александра Семёнова - Русское церковное пение\01. Достойно есть.wav

Длина предзазора 0:00:02.00

Пиковый уровень 64.5 %
Качество трека 100.0 %
CRC теста 3D678BAC
CRC копии 3D678BAC
Копирование... OK

Трек 2
Имя файла C:\Music\Хор Александра Семёнова - Русское церковное пение\02. Херувимская песнь.wav

Длина предзазора 0:00:04.10

Пиковый уровень 99.8 %
Качество трека 100.0 %
CRC теста E671AECA
CRC копии E671AECA
Копирование... OK

Трек 3
Имя файла C:\Music\Хор Александра Семёнова - Русское церковное пение\03. Воспойте людие.wav

Длина предзазора 0:00:03.37

Пиковый уровень 35.5 %
Качество трека 99.9 %
CRC теста DC9A0290
CRC копии DC9A0290
Копирование... OK

Трек 4
Имя файла C:\Music\Хор Александра Семёнова - Русское церковное пение\04. Величание преподобному Сергию, игумену Радонежскому.wav

Длина предзазора 0:00:03.25

Пиковый уровень 55.4 %
Качество трека 100.0 %
CRC теста D8F702B6
CRC копии D8F702B6
Копирование... OK

Трек 5
Имя файла C:\Music\Хор Александра Семёнова - Русское церковное пение\05. Тебе одеющагося.wav

Длина предзазора 0:00:02.50

Пиковый уровень 65.8 %
Качество трека 100.0 %
CRC теста 73AF29C7
CRC копии 73AF29C7
Копирование... OK

Трек 6
Имя файла C:\Music\Хор Александра Семёнова - Русское церковное пение\06. Достойно и праведно есть.wav

Длина предзазора 0:00:02.38

Пиковый уровень 76.6 %
Качество трека 99.8 %
CRC теста 0B2C3B84
CRC копии 0B2C3B84
Копирование... OK

Трек 7
Имя файла C:\Music\Хор Александра Семёнова - Русское церковное пение\07. Возбранной Воеводе.wav

Длина предзазора 0:00:04.15

Пиковый уровень 99.0 %
Качество трека 100.0 %
CRC теста 9AE94FCB
CRC копии 9AE94FCB
Копирование... OK

Трек 8
Имя файла C:\Music\Хор Александра Семёнова - Русское церковное пение\08. Свете Тихий.wav

Длина предзазора 0:00:02.17

Пиковый уровень 84.0 %
Качество трека 100.0 %
CRC теста 61DD71CA
CRC копии 61DD71CA
Копирование... OK

Трек 9
Имя файла C:\Music\Хор Александра Семёнова - Русское церковное пение\09. Совет превечный.wav

Длина предзазора 0:00:04.37

Пиковый уровень 86.8 %
Качество трека 100.0 %
CRC теста C9E36F58
CRC копии C9E36F58
Копирование... OK

Трек 10
Имя файла C:\Music\Хор Александра Семёнова - Русское церковное пение\10. Милость мира.wav

Длина предзазора 0:00:05.67

Пиковый уровень 80.2 %
Качество трека 100.0 %
CRC теста 5A52A0D2
CRC копии 5A52A0D2
Копирование... OK

Трек 11
Имя файла C:\Music\Хор Александра Семёнова - Русское церковное пение\11. Достойно есть.wav

Длина предзазора 0:00:03.24

Пиковый уровень 46.6 %
Качество трека 100.0 %
CRC теста 4441FF15
CRC копии 4441FF15
Копирование... OK

Трек 12
Имя файла C:\Music\Хор Александра Семёнова - Русское церковное пение\12. Херувимская песнь.wav

Длина предзазора 0:00:06.35

Пиковый уровень 99.2 %
Качество трека 100.0 %
CRC теста B8DF6CAC
CRC копии B8DF6CAC
Копирование... OK

Трек 13
Имя файла C:\Music\Хор Александра Семёнова - Русское церковное пение\13. Небесных чинов радование.wav

Длина предзазора 0:00:02.70

Пиковый уровень 36.9 %
Качество трека 100.0 %
CRC теста DCC8E530
CRC копии DCC8E530
Копирование... OK

Трек 14
Имя файла C:\Music\Хор Александра Семёнова - Русское церковное пение\14. Ангел вопияше.wav

Длина предзазора 0:00:03.19

Пиковый уровень 98.6 %
Качество трека 100.0 %
CRC теста 2B19A694
CRC копии 2B19A694
Копирование... OK

Трек 15
Имя файла C:\Music\Хор Александра Семёнова - Русское церковное пение\15. Господи сил, с нами буди.wav

Длина предзазора 0:00:02.47

Пиковый уровень 54.4 %
Качество трека 100.0 %
CRC теста 0AD1795D
CRC копии 0AD1795D
Копирование... OK

Трек 16
Имя файла C:\Music\Хор Александра Семёнова - Русское церковное пение\16. Благослови, душе моя, Господа.wav

Длина предзазора 0:00:04.15

Пиковый уровень 83.1 %
Качество трека 100.0 %
CRC теста F2D7686F
CRC копии F2D7686F
Копирование... OK

Трек 17
Имя файла C:\Music\Хор Александра Семёнова - Русское церковное пение\17. Слава в Вышних Богу.wav

Длина предзазора 0:00:03.12

Пиковый уровень 71.1 %
Качество трека 100.0 %
CRC теста 3D51FBF2
CRC копии 3D51FBF2
Копирование... OK

Трек 18
Имя файла C:\Music\Хор Александра Семёнова - Русское церковное пение\18. Отче наш.wav

Длина предзазора 0:00:04.18

Пиковый уровень 89.5 %
Качество трека 100.0 %
CRC теста 0E690F9B
CRC копии 0E690F9B
Копирование... OK

Трек 19
Имя файла C:\Music\Хор Александра Семёнова - Русское церковное пение\19. Богородице Дево, радуйся.wav

Длина предзазора 0:00:03.52

Пиковый уровень 76.2 %
Качество трека 100.0 %
CRC теста 376BFFE2
CRC копии 376BFFE2
Копирование... OK

Трек 20
Имя файла C:\Music\Хор Александра Семёнова - Русское церковное пение\20. Дева днесь.wav

Длина предзазора 0:00:02.44

Пиковый уровень 61.9 %
Качество трека 100.0 %
CRC теста CB31E345
CRC копии CB31E345
Копирование... OK

Трек 21
Имя файла C:\Music\Хор Александра Семёнова - Русское церковное пение\21. Да возрадуется душа твоя о Господе.wav

Длина предзазора 0:00:02.64

Пиковый уровень 99.3 %
Качество трека 100.0 %
CRC теста E38CB84C
CRC копии E38CB84C
Копирование... OK

Ошибок не произошло

Конец отчёта
Download

Войдите на сайт, чтобы увидеть полную информацию.

Как скачивать  ·   Правила трекера

[Профиль]  [ЛС] 

Странник1

Стаж: 8 лет 8 месяцев

Сообщений: 2307

Russia

post 16-Мар-2012 15:48 (спустя 8 месяцев)

[Цитировать] 

Благодарю!!
[Профиль]  [ЛС] 

Николай77

Стаж: 6 лет 8 месяцев

Сообщений: 23

Ukraine

post 23-Мар-2012 21:47 (спустя 7 дней)

[Цитировать] 

Благодарю!Люблю петь в Храме.
[Профиль]  [ЛС] 

Ярослав8823

Стаж: 1 год 6 месяцев

Сообщений: 1

post 25-Апр-2017 19:28 (спустя 5 лет 1 месяц)

[Цитировать] 

Невероятное исполнение Херувимской! Красота! А на ютубе 1,5 млн просмотров.

Link
[Профиль]  [ЛС] 

GenOK

Стаж: 6 месяцев

Сообщений: 1

post 29-Мар-2018 23:43 (спустя 11 месяцев)

[Цитировать] 

Благодарю!!!
[Профиль]  [ЛС] 

mangealic

Стаж: 4 года

Сообщений: 76

post 30-Мар-2018 09:04 (спустя 9 часов)

[Цитировать] 

Благодарю !
[Профиль]  [ЛС] 
Показать сообщения:    
Ответить на тему

Текущее время: 20-Авг 03:54

Часовой пояс: GMT + 4



Вы не можете начинать темы
Вы не можете отвечать на сообщения
Вы не можете редактировать свои сообщения
Вы не можете удалять свои сообщения
Вы не можете голосовать в опросах
Вы не можете прикреплять файлы к сообщениям
Вы не можете скачивать файлы