Loading...
Error

(Песнопения знаменного распева) Группа певцов Сибири п.у. А.Сафронникова - Древнерусские песнопения знаменного распева - 2004, FLAC (tracks), lossless

Ответить на тему
Статистика раздачи
   
 
Автор Сообщение

etrusk

Стаж: 7 лет 11 месяцев

Сообщений: 128

Russia

post 16-Май-2011 16:16

[Цитировать] 

Группа певцов-любителей старообрядческих храмов Сибири п.у. д.А.Сафронникова - Древнерусские песнопения знаменного распева

pic
Страна: Россия
Жанр: Песнопения знаменного распева
Год выпуска: 2004
Формат: FLAC (tracks)
Битрейт аудио: lossless
Продолжительность: 0:53:20
Трэклист:
01. Велие и преславное чудо, стихера Рождеству Христову, глас 2 - 1:53
02. Всемирная радость, стихера Рожеству Богородицы, глас 4 - 2:10
03. Иже на херувимех носимыи, осьмогласник Сретению - 6:23
04. Бог Слово, стихера по 50-м псалме Богоявлению, глас 6 - 2:37
05. Радуйся живоносныи Кресте, стихера Кресту, глас 5 - 3:32
06. Днесь Христос на Иордани, стихера Богоявлению, глас 2 - 2:41
07. Да радуется днесь небо свыше, литейная стихера Введению, глас 1 - 3:14
08. Неразумеюще язык, стихера на Троицу, глас 6 - 2:44
09. Прежде шести дней бытия Пасхи, стихера на Вербное Воскресение, глас 3 - 3:06
10. Покрываяй водами, ирмос Рожеству Богородицы - 1:29
11. Воскресение Твое Христе Спасе, стихера на Святую Пасху, глас 6 - 1:38
12. Украси свой чертог, стихера Сретению, глас 7 - 3:10
13. Пламень прохлаждающь, ирмос Успению Богородицы - 1:44
14. Родися яко сам восхоте, стихера Вознесению, глас 2 - 2:00
15. Исаие ликуй, ирмос, глас 5 - 1:19
16. Приидите воспоем людие, стихера Успению Богородицы, глас 4 - 2:03
17. Божества Твоего Спасе, стихера на Преображение, глас 5 - 3:41
18. О последнем времени, духовный стих - 3:42
19. Памяти Аввакума, духовный стих - 3:27
20. Слава в вышних Богу - 0:46
Дополнительная информация:
Диск-самоделка, к тому же старенький, поэтому читается с трудом, очень много ошибок. Фактически, только первый и последний треки без ошибок, остальные с ошибками. В частности, из-за этого риповалось отдельными треками, а не цельным образом.
EAC LOG
Exact Audio Copy V0.99 prebeta 5 from 4. May 2009

Отчёт EAC об извлечении, выполненном 26. марта 2011, 21:26

Хор певцов Сибири п.у. А.Сафронникова / Древнерусские песнопения знаменного распева

Дисковод: Optiarc DVD RW AD-7200S Adapter: 5 ID: 0

Режим чтения : Достоверность
Использование точного потока : Да
Отключение кэша аудио : Да
Использование указателей C2 : Нет

Коррекция смещения при чтении : 48
Способность читать области Lead-in и Lead-out : Нет
Заполнение пропущенных сэмплов тишиной : Да
Удаление блоков с тишиной в начале и конце : Нет
При вычислениях CRC использовались нулевые сэмплы : Да
Интерфейс : Встроенный Win32-интерфейс для Win NT/2000
Обработка зазоров : Добавлено к предыдущему треку

Выходной формат : Внутренние WAV-операции
Формат сэмплов : 44.100 Гц; 16 бит; стерео

TOC извлечённого CD

Трек | Старт | Длительность | Начальный сектор | Конечный сектор
---------------------------------------------------------------------
1 | 0:00.00 | 1:53.05 | 0 | 8479
2 | 1:53.05 | 2:10.10 | 8480 | 18239
3 | 4:03.15 | 6:23.16 | 18240 | 46980
4 | 10:26.31 | 2:36.58 | 46981 | 58738
5 | 13:03.14 | 3:32.35 | 58739 | 74673
6 | 16:35.49 | 2:40.60 | 74674 | 86733
7 | 19:16.34 | 3:14.32 | 86734 | 101315
8 | 22:30.66 | 2:44.32 | 101316 | 113647
9 | 25:15.23 | 3:05.54 | 113648 | 127576
10 | 28:21.02 | 1:28.67 | 127577 | 134243
11 | 29:49.69 | 1:37.71 | 134244 | 141589
12 | 31:27.65 | 3:10.12 | 141590 | 155851
13 | 34:38.02 | 1:44.06 | 155852 | 163657
14 | 36:22.08 | 1:59.41 | 163658 | 172623
15 | 38:21.49 | 1:18.65 | 172624 | 178538
16 | 39:40.39 | 2:03.34 | 178539 | 187797
17 | 41:43.73 | 3:40.47 | 187798 | 204344
18 | 45:24.45 | 3:42.13 | 204345 | 221007
19 | 49:06.58 | 3:27.25 | 221008 | 236557
20 | 52:34.08 | 0:45.45 | 236558 | 239977

Трек 1

Имя файла K:\Audio\Spiritual_Religious_Chants\Россия\Старообрядцы\Древнерусские песнопения\01 - Track01.wav

Длина предзазора 0:00:02.00

Пиковый уровень 98.1 %
Качество трека 100.0 %
CRC теста 0F0F49D7
CRC копии 0F0F49D7
Трек не обнаружен в базе AccurateRip
Копирование... OK

Трек 2

Имя файла K:\Audio\Spiritual_Religious_Chants\Россия\Старообрядцы\Древнерусские песнопения\02 - Track02.wav

Подозрительная позиция 0:01:47 - 0:02:06

Пиковый уровень 98.1 %
Качество трека 95.2 %
CRC теста D9A21EAD
CRC копии A87D468F
Трек не обнаружен в базе AccurateRip
Копирование завершено

Трек 3

Имя файла K:\Audio\Spiritual_Religious_Chants\Россия\Старообрядцы\Древнерусские песнопения\03 - Track03.wav

Подозрительная позиция 0:00:00 - 0:00:06
Подозрительная позиция 0:00:08 - 0:00:10
Подозрительная позиция 0:00:12 - 0:00:14
Подозрительная позиция 0:00:16
Подозрительная позиция 0:04:02
Подозрительная позиция 0:04:04
Подозрительная позиция 0:04:07 - 0:04:10
Подозрительная позиция 0:04:12 - 0:06:18

Пиковый уровень 98.1 %
Качество трека 95.0 %
CRC теста 3BDEC44A
CRC копии 8867FCBD
Трек не обнаружен в базе AccurateRip
Копирование завершено

Трек 4

Имя файла K:\Audio\Spiritual_Religious_Chants\Россия\Старообрядцы\Древнерусские песнопения\04 - Track04.wav

Подозрительная позиция 0:00:00 - 0:02:29

Пиковый уровень 99.9 %
Качество трека 94.1 %
CRC теста C7534D29
CRC копии 5BA38063
Трек не обнаружен в базе AccurateRip
Копирование завершено

Трек 5

Имя файла K:\Audio\Spiritual_Religious_Chants\Россия\Старообрядцы\Древнерусские песнопения\05 - Track05.wav

Подозрительная позиция 0:00:00 - 0:01:17
Подозрительная позиция 0:01:19 - 0:01:36
Подозрительная позиция 0:01:38
Подозрительная позиция 0:01:40
Подозрительная позиция 0:01:42 - 0:01:47
Подозрительная позиция 0:01:49 - 0:01:51
Подозрительная позиция 0:01:53 - 0:01:55
Подозрительная позиция 0:01:57 - 0:01:58
Подозрительная позиция 0:02:00 - 0:02:08
Подозрительная позиция 0:02:12 - 0:03:28

Пиковый уровень 98.1 %
Качество трека 94.2 %
CRC теста BA22F1E8
CRC копии E3E0E513
Трек не обнаружен в базе AccurateRip
Копирование завершено

Трек 6

Имя файла K:\Audio\Spiritual_Religious_Chants\Россия\Старообрядцы\Древнерусские песнопения\06 - Track06.wav

Подозрительная позиция 0:00:00 - 0:02:25
Подозрительная позиция 0:02:27 - 0:02:35

Пиковый уровень 98.1 %
Качество трека 94.1 %
CRC теста D5BCF476
CRC копии 3F8A2B27
Трек не обнаружен в базе AccurateRip
Копирование завершено

Трек 7

Имя файла K:\Audio\Spiritual_Religious_Chants\Россия\Старообрядцы\Древнерусские песнопения\07 - Track07.wav

Подозрительная позиция 0:00:00 - 0:00:02
Подозрительная позиция 0:00:04 - 0:00:06
Подозрительная позиция 0:00:09 - 0:00:17
Подозрительная позиция 0:00:19
Подозрительная позиция 0:00:23 - 0:00:25
Подозрительная позиция 0:00:27 - 0:01:18
Подозрительная позиция 0:01:20 - 0:01:21
Подозрительная позиция 0:01:24
Подозрительная позиция 0:01:26
Подозрительная позиция 0:01:28
Подозрительная позиция 0:01:32
Подозрительная позиция 0:01:34
Подозрительная позиция 0:01:38
Подозрительная позиция 0:01:43
Подозрительная позиция 0:01:50
Подозрительная позиция 0:01:52 - 0:01:53
Подозрительная позиция 0:01:58 - 0:02:03
Подозрительная позиция 0:02:05 - 0:02:06
Подозрительная позиция 0:02:08 - 0:02:50
Подозрительная позиция 0:02:52 - 0:02:56
Подозрительная позиция 0:03:02

Пиковый уровень 98.1 %
Качество трека 95.4 %
CRC теста B07BEC70
Трек не обнаружен в базе AccurateRip
Копирование завершено

Трек 7

Имя файла K:\Audio\Spiritual_Religious_Chants\Россия\Старообрядцы\Древнерусские песнопения\07 - Track07.wav

Подозрительная позиция 0:00:00 - 0:00:02
Подозрительная позиция 0:00:04
Подозрительная позиция 0:00:06 - 0:00:20
Подозрительная позиция 0:00:23 - 0:00:25
Подозрительная позиция 0:00:27 - 0:00:30
Подозрительная позиция 0:00:32
Подозрительная позиция 0:00:34 - 0:01:18
Подозрительная позиция 0:01:20 - 0:01:21
Подозрительная позиция 0:01:26
Подозрительная позиция 0:01:28 - 0:01:29
Подозрительная позиция 0:01:34
Подозрительная позиция 0:01:45 - 0:01:46
Подозрительная позиция 0:01:52 - 0:01:53
Подозрительная позиция 0:01:55
Подозрительная позиция 0:01:58 - 0:02:50
Подозрительная позиция 0:02:52 - 0:02:56
Подозрительная позиция 0:02:58
Подозрительная позиция 0:03:01
Подозрительная позиция 0:03:03

Пиковый уровень 98.1 %
Качество трека 95.4 %
CRC копии 5F5DE954
Трек не обнаружен в базе AccurateRip
Копирование завершено

Трек 8

Имя файла K:\Audio\Spiritual_Religious_Chants\Россия\Старообрядцы\Древнерусские песнопения\08 - Track08.wav

Подозрительная позиция 0:00:03
Подозрительная позиция 0:00:09 - 0:00:10
Подозрительная позиция 0:00:12
Подозрительная позиция 0:00:14 - 0:00:17
Подозрительная позиция 0:00:19 - 0:00:20
Подозрительная позиция 0:00:23 - 0:00:26
Подозрительная позиция 0:00:28
Подозрительная позиция 0:00:30
Подозрительная позиция 0:00:32
Подозрительная позиция 0:00:34 - 0:00:46
Подозрительная позиция 0:00:48 - 0:00:49
Подозрительная позиция 0:00:53 - 0:01:01
Подозрительная позиция 0:01:03 - 0:01:04
Подозрительная позиция 0:01:06
Подозрительная позиция 0:01:08 - 0:01:10
Подозрительная позиция 0:01:13 - 0:01:16
Подозрительная позиция 0:01:18 - 0:01:28
Подозрительная позиция 0:01:30 - 0:01:44
Подозрительная позиция 0:01:46 - 0:01:47
Подозрительная позиция 0:01:50 - 0:01:59
Подозрительная позиция 0:02:01 - 0:02:35

Пиковый уровень 98.1 %
Качество трека 95.4 %
CRC теста C129D5F1
CRC копии 902C2790
Трек не обнаружен в базе AccurateRip
Копирование завершено

Трек 9

Имя файла K:\Audio\Spiritual_Religious_Chants\Россия\Старообрядцы\Древнерусские песнопения\09 - Track09.wav

Подозрительная позиция 0:00:00 - 0:00:27
Подозрительная позиция 0:00:29 - 0:02:58

Пиковый уровень 98.1 %
Качество трека 93.7 %
CRC теста F991283A
CRC копии B523ADDA
Трек не обнаружен в базе AccurateRip
Копирование завершено

Трек 10

Имя файла K:\Audio\Spiritual_Religious_Chants\Россия\Старообрядцы\Древнерусские песнопения\10 - Track10.wav

Подозрительная позиция 0:00:00 - 0:00:01
Подозрительная позиция 0:00:03 - 0:00:34
Подозрительная позиция 0:00:36 - 0:00:41
Подозрительная позиция 0:00:43 - 0:00:45
Подозрительная позиция 0:00:49 - 0:00:51
Подозрительная позиция 0:00:53 - 0:01:02
Подозрительная позиция 0:01:04 - 0:01:23

Пиковый уровень 98.1 %
Качество трека 94.8 %
CRC теста C142290E
CRC копии 0E7601DE
Трек не обнаружен в базе AccurateRip
Копирование завершено

Трек 11

Имя файла K:\Audio\Spiritual_Religious_Chants\Россия\Старообрядцы\Древнерусские песнопения\11 - Track11.wav

Подозрительная позиция 0:00:00 - 0:01:04
Подозрительная позиция 0:01:06 - 0:01:10
Подозрительная позиция 0:01:12 - 0:01:30

Пиковый уровень 98.1 %
Качество трека 93.9 %
CRC теста C17A8014
CRC копии 81AD34C5
Трек не обнаружен в базе AccurateRip
Копирование завершено

Трек 12

Имя файла K:\Audio\Spiritual_Religious_Chants\Россия\Старообрядцы\Древнерусские песнопения\12 - Track12.wav

Подозрительная позиция 0:00:00 - 0:00:03
Подозрительная позиция 0:00:05
Подозрительная позиция 0:00:08 - 0:00:10
Подозрительная позиция 0:00:12 - 0:00:22
Подозрительная позиция 0:00:25 - 0:00:29
Подозрительная позиция 0:00:31 - 0:00:34
Подозрительная позиция 0:00:37 - 0:00:42
Подозрительная позиция 0:00:44 - 0:01:25
Подозрительная позиция 0:01:27 - 0:01:29
Подозрительная позиция 0:01:31
Подозрительная позиция 0:01:33 - 0:01:36
Подозрительная позиция 0:01:38 - 0:03:03

Пиковый уровень 98.1 %
Качество трека 94.6 %
CRC теста 2BA8A023
CRC копии 43B99911
Трек не обнаружен в базе AccurateRip
Копирование завершено

Трек 13

Имя файла K:\Audio\Spiritual_Religious_Chants\Россия\Старообрядцы\Древнерусские песнопения\13 - Track13.wav

Подозрительная позиция 0:00:00 - 0:00:17
Подозрительная позиция 0:00:19 - 0:01:36

Пиковый уровень 98.1 %
Качество трека 93.9 %
CRC теста C0EEF3AE
CRC копии 5DA85DBF
Трек не обнаружен в базе AccurateRip
Копирование завершено

Трек 14

Имя файла K:\Audio\Spiritual_Religious_Chants\Россия\Старообрядцы\Древнерусские песнопения\14 - Track14.wav

Подозрительная позиция 0:00:00 - 0:00:12
Подозрительная позиция 0:00:14 - 0:01:04
Подозрительная позиция 0:01:06 - 0:01:19
Подозрительная позиция 0:01:22 - 0:01:24
Подозрительная позиция 0:01:27 - 0:01:29
Подозрительная позиция 0:01:31 - 0:01:33
Подозрительная позиция 0:01:35 - 0:01:39
Подозрительная позиция 0:01:41 - 0:01:42
Подозрительная позиция 0:01:46

Пиковый уровень 98.1 %
Качество трека 94.9 %
CRC теста 7B62BC74
CRC копии A0277638
Трек не обнаружен в базе AccurateRip
Копирование завершено

Трек 15

Имя файла K:\Audio\Spiritual_Religious_Chants\Россия\Старообрядцы\Древнерусские песнопения\15 - Track15.wav

Подозрительная позиция 0:00:01
Подозрительная позиция 0:00:08
Подозрительная позиция 0:00:10
Подозрительная позиция 0:00:21
Подозрительная позиция 0:00:25
Подозрительная позиция 0:00:28 - 0:00:32
Подозрительная позиция 0:00:35
Подозрительная позиция 0:00:37
Подозрительная позиция 0:00:44
Подозрительная позиция 0:00:47 - 0:00:48
Подозрительная позиция 0:00:50
Подозрительная позиция 0:00:53 - 0:00:54
Подозрительная позиция 0:00:58
Подозрительная позиция 0:01:01 - 0:01:02
Подозрительная позиция 0:01:06

Пиковый уровень 98.1 %
Качество трека 97.0 %
CRC теста F789FB29
CRC копии A871BEB4
Трек не обнаружен в базе AccurateRip
Копирование завершено

Трек 16

Имя файла K:\Audio\Spiritual_Religious_Chants\Россия\Старообрядцы\Древнерусские песнопения\16 - Track16.wav

Подозрительная позиция 0:00:22
Подозрительная позиция 0:00:26
Подозрительная позиция 0:00:30
Подозрительная позиция 0:00:36
Подозрительная позиция 0:00:39
Подозрительная позиция 0:00:42
Подозрительная позиция 0:00:47
Подозрительная позиция 0:00:49
Подозрительная позиция 0:00:52
Подозрительная позиция 0:00:54
Подозрительная позиция 0:00:59
Подозрительная позиция 0:01:02
Подозрительная позиция 0:01:06
Подозрительная позиция 0:01:16 - 0:01:17
Подозрительная позиция 0:01:19
Подозрительная позиция 0:01:24
Подозрительная позиция 0:01:26
Подозрительная позиция 0:01:28
Подозрительная позиция 0:01:30
Подозрительная позиция 0:01:33 - 0:01:35
Подозрительная позиция 0:01:37
Подозрительная позиция 0:01:40
Подозрительная позиция 0:01:46 - 0:01:47
Подозрительная позиция 0:01:49
Подозрительная позиция 0:01:52 - 0:01:56

Пиковый уровень 98.1 %
Качество трека 97.0 %
CRC теста F6C8E2DE
CRC копии 5C267E32
Трек не обнаружен в базе AccurateRip
Копирование завершено

Трек 17

Имя файла K:\Audio\Spiritual_Religious_Chants\Россия\Старообрядцы\Древнерусские песнопения\17 - Track17.wav

Подозрительная позиция 0:00:01
Подозрительная позиция 0:00:03
Подозрительная позиция 0:00:06
Подозрительная позиция 0:00:08 - 0:00:11
Подозрительная позиция 0:00:14 - 0:00:16
Подозрительная позиция 0:00:18 - 0:00:19
Подозрительная позиция 0:00:21 - 0:00:24
Подозрительная позиция 0:00:26 - 0:00:34
Подозрительная позиция 0:00:37 - 0:00:42
Подозрительная позиция 0:00:44
Подозрительная позиция 0:00:47 - 0:00:49
Подозрительная позиция 0:00:51 - 0:00:56
Подозрительная позиция 0:00:59
Подозрительная позиция 0:01:01
Подозрительная позиция 0:01:03
Подозрительная позиция 0:01:05
Подозрительная позиция 0:01:08 - 0:01:09
Подозрительная позиция 0:01:13 - 0:01:15
Подозрительная позиция 0:01:17 - 0:01:18
Подозрительная позиция 0:01:22
Подозрительная позиция 0:01:29 - 0:01:30
Подозрительная позиция 0:01:35
Подозрительная позиция 0:01:37
Подозрительная позиция 0:01:41
Подозрительная позиция 0:01:43 - 0:01:46
Подозрительная позиция 0:01:48 - 0:01:52
Подозрительная позиция 0:01:56
Подозрительная позиция 0:01:58
Подозрительная позиция 0:02:04 - 0:02:06
Подозрительная позиция 0:02:08
Подозрительная позиция 0:02:11 - 0:02:13
Подозрительная позиция 0:02:15
Подозрительная позиция 0:02:17
Подозрительная позиция 0:02:19
Подозрительная позиция 0:02:21
Подозрительная позиция 0:02:23 - 0:02:31
Подозрительная позиция 0:02:33 - 0:02:37
Подозрительная позиция 0:02:43 - 0:02:44
Подозрительная позиция 0:02:48
Подозрительная позиция 0:02:50
Подозрительная позиция 0:02:54 - 0:02:55
Подозрительная позиция 0:02:57
Подозрительная позиция 0:03:00 - 0:03:04
Подозрительная позиция 0:03:09 - 0:03:12
Подозрительная позиция 0:03:15
Подозрительная позиция 0:03:17
Подозрительная позиция 0:03:24

Пиковый уровень 98.1 %
Качество трека 96.3 %
CRC теста 5A974CD6
CRC копии 00590564
Трек не обнаружен в базе AccurateRip
Копирование завершено

Трек 18

Имя файла K:\Audio\Spiritual_Religious_Chants\Россия\Старообрядцы\Древнерусские песнопения\18 - Track18.wav

Подозрительная позиция 0:00:03
Подозрительная позиция 0:00:08 - 0:00:10
Подозрительная позиция 0:00:14 - 0:00:17
Подозрительная позиция 0:00:23
Подозрительная позиция 0:00:25
Подозрительная позиция 0:00:30 - 0:00:35
Подозрительная позиция 0:00:37 - 0:00:42
Подозрительная позиция 0:00:44 - 0:00:45
Подозрительная позиция 0:00:49 - 0:00:50
Подозрительная позиция 0:00:52 - 0:00:54
Подозрительная позиция 0:00:56 - 0:00:58
Подозрительная позиция 0:01:00
Подозрительная позиция 0:01:02
Подозрительная позиция 0:01:05 - 0:01:08
Подозрительная позиция 0:01:10 - 0:01:20
Подозрительная позиция 0:01:22
Подозрительная позиция 0:01:24 - 0:01:25
Подозрительная позиция 0:01:27 - 0:01:28
Подозрительная позиция 0:01:30 - 0:01:32
Подозрительная позиция 0:01:34 - 0:01:35
Подозрительная позиция 0:01:37 - 0:01:38
Подозрительная позиция 0:01:41
Подозрительная позиция 0:01:43 - 0:01:45
Подозрительная позиция 0:01:48 - 0:01:52
Подозрительная позиция 0:01:54
Подозрительная позиция 0:01:57
Подозрительная позиция 0:01:59
Подозрительная позиция 0:02:09 - 0:02:10
Подозрительная позиция 0:02:14
Подозрительная позиция 0:02:16 - 0:02:22
Подозрительная позиция 0:02:26
Подозрительная позиция 0:02:28
Подозрительная позиция 0:02:36
Подозрительная позиция 0:02:48

Пиковый уровень 98.1 %
Качество трека 96.4 %
CRC теста 2A24E4DB
CRC копии 1D53EFA1
Трек не обнаружен в базе AccurateRip
Копирование завершено

Трек 19

Имя файла K:\Audio\Spiritual_Religious_Chants\Россия\Старообрядцы\Древнерусские песнопения\19 - Track19.wav

Пиковый уровень 98.1 %
Качество трека 99.9 %
CRC теста E819BEEA
CRC копии 42F9800C
Трек не обнаружен в базе AccurateRip
Копирование... OK

Трек 20

Имя файла K:\Audio\Spiritual_Religious_Chants\Россия\Старообрядцы\Древнерусские песнопения\20 - Track20.wav

Пиковый уровень 98.1 %
Качество трека 100.0 %
CRC теста 5995BFD6
CRC копии 5995BFD6
Трек не обнаружен в базе AccurateRip
Копирование... OK

Ни одного трека нет в базе AccurateRip

Ошибок не произошло

Конец отчёта
На диске представлены записи старообрядцев-поповцев Сибири. Наряду с церковными (богослужебными) песнопениями присутствует пара духовных стихов - песен на духовную тематику. Первый, "О последнем времени", вполне обычен и исполняется не только старообрядцами; второй, "Памяти Аввакума" - чисто старообрядческий, про протопопа Аввакума. Соответственно, кому не нужно и не интересно, тот эти треки не скачивает.
Исполнители: д.Анатолий Сафронников, д.Валентин Бесштанников, ч.Василий, ч.Никола, ч.Дионисий Коробейниковы, ч.Петр Долнаков, Роман Донцов, Анатолий Нуйкин.
Запись произведена в Томском государственном университете 27-28 января 2004 года.
Исполнение ровное, плавное, без особых мелодических и мелизматических изысков, но вполне симпатичное. Рекомендуется интересующимся.
MP3 - http://pravtor.ru/viewtopic.php?p=59431
Download

Войдите на сайт, чтобы увидеть полную информацию.

Как скачивать  ·   Правила трекера

[Профиль]  [ЛС] 

kostily

Стаж: 8 лет 11 месяцев

Сообщений: 6

Belarus

post 15-Июл-2011 12:45 (спустя 1 месяц 29 дней)

[Цитировать] 

Можно ли когда-нибудь уже раздать?
Хочется послушать и разобраться в этих песнопениях!
Спаси, Господи!

_________________
С уважением, Константин
[Профиль]  [ЛС] 

kostily

Стаж: 8 лет 11 месяцев

Сообщений: 6

Belarus

post 15-Июл-2011 12:49 (спустя 4 минуты)

[Цитировать] 

etrusk
Можно ли когда-нибудь уже раздать?
Хочется послушать и разобраться в этих песнопениях!
Спаси, Господи!

(Песнопения знаменного распева) Группа певцов Сибири п.у. А.Сафронникова - Древнерусские песнопения знаменного распева - 2004, FLAC (tracks), lossless

_________________
С уважением, Константин
[Профиль]  [ЛС] 

DREVLE.INOK

post 31-Окт-2011 15:02 (спустя 3 месяца 16 дней)

[Цитировать] 

братья подскажите как скачать?
 

TRAFIK

Стаж: 1 год 4 месяца

Сообщений: 7

Ussr

post 10-Апр-2017 21:37 (спустя 5 лет 5 месяцев)

[Цитировать] 

Добрый вечер, пожалуйста, дайте немного раздачи, спасибо!
[Профиль]  [ЛС] 
Показать сообщения:    
Ответить на тему

Текущее время: 19-Авг 03:58

Часовой пояс: GMT + 4



Вы не можете начинать темы
Вы не можете отвечать на сообщения
Вы не можете редактировать свои сообщения
Вы не можете удалять свои сообщения
Вы не можете голосовать в опросах
Вы не можете прикреплять файлы к сообщениям
Вы не можете скачивать файлы