Loading...
Error

(Песнопения знаменного распева) Стрельниковский хор Костромской земли (Памятники старообрядческого певческого искусства. Выпуск 1) - 2007, FLAC (image + .cue), lossless

Ответить на тему
Статистика раздачи
   
 
Автор Сообщение

etrusk

Стаж: 7 лет 11 месяцев

Сообщений: 128

Russia

post 04-Мар-2011 17:54

[Цитировать] 

Стрельниковский хор Костромской земли (Памятники старообрядческого певческого искусства. Выпуск 1)

pic
Страна: Россия
Жанр: Песнопения знаменного распева
Год выпуска: 2007
Формат: FLAC (image + .cue)
Битрейт аудио: lossless
Продолжительность: 0:59:16
Трэклист:
1. Стихера «Царю небесный» — знаменный роспев 6-го гласа — 2:18
2. Богородичен «Подаждь утешение» — знаменный роспев 4-го гласа — 2:35
3. Ирмосы: «Волною морскою», «Тебе на водах», «Еже на кресте» — знаменный роспев 6-го гласа — 3:04
4. Стихера «Приидите ублажим Иосифа» — знаменный роспев 5-го гласа — 6:36
5. Великое славословие — напевка (версия Стрельниковской общины). Трисвятое — большой знаменный роспев — 7:52
6. Антифоны «На небо очи возвожу» — знаменный роспев 6-го гласа — 1:50
7. Антифоны на литургии:
псалом 102 «Благослови душе моя Господа»,
псалом 145 «Хвали душе моя Господа» (на подобен 5-го гласа «Радуйся») — 8:14
8. Воскресные тропари «Ангельский собор» — напевка — 5:04
9. Блаженна «Древа ради Адам» — знаменный роспев 4-го гласа — 2:03
10. Стихера «Иже крестом» — демественный роспев — 3:24
11. Ексапсалмы (греч.- шесть), т.е. шестопсалмие (фрагмент). Читает Леонид Николаевич Матвеев — 6:51
12. Духовный стих «О числах». Запевает Иван Алексеевич Сергеев — 5:04
13. Херувимская песнь — Иргизский напев (фрагмент) — 4:21
Дополнительная информация: Описание, взятое с рутрекера.
Диск издан в честь 100-летия со дня рождения основателя хора — головщика Ивана Алексеевича Сергеева (1897—1990). Пройдя обучение в певческой школе села Стрельниково ещё до революции, он стал живым хранителем местной традиции знаменного пения. Сергеев был бессменным руководителем хора до самого 1989 года, когда его усилиями в Костроме открылся старообрядческий приход. В этой новой церкви Иван Алексеевич и пел до самой смерти.
В 1984 году хор выступил в Москве перед научными сотрудниками ГМПИ им. Гнесиных и консерватории, которые высоко оценили исполнительское мастерство и самобытную манеру пения.
В основу диска положены записи, собранные Н.Денисовым в ходе многолетних работ (с 1981 года) по изучению певческих традиций Стрельниковского хора. Они делались на богослужениях, во время бесед с певцами, в дни пребывания хора в Москве в 1984 году. На диске представлены песнопения знаменного роспева (силлабического, невматического, мелизматического стилей), демественного роспева, Иргизского напева, песнопения, исполняемые по «напевке», духовный стих, речитативное чтение. Напев духовного стиха «О числах» принадлежит самому Ивану Алексеевичу Сергееву.
Не все фонограммы студийные. Экспедиционные записи делались на бытовых магнитофонах, поэтому имеют целый ряд технических недочетов. Несмотря на всю реставрационную работу, на них сохранились посторонние звуки. Однако, в настоящее время они представляют памятники старообрядческого певческого искусства второй половины XX столетия. На них звучат голоса певцов, которые еще в начале XX века, будучи детьми, окончили певческую школу и пронесли любовь к церковному пению на протяжении всей своей нелегкой жизни. На этих фонограммах представлена живая молитва старообрядцев Костромской земли, обращенная к Богу и воплощенная в музыкальных звуках. И в этом их непреходящая ценность (из текста буклета).
Материалы подготовил Н.Г. Денисов.
Издание осуществлено на средства дочерей Ивана Алексеевича: Валентины, Киры, Гаиании.
По благословению преосвященнейшего Иоанна, архиепископа Костромского и Ярославского

Рекомендуется любителям знаменного пения.
EAC log
Exact Audio Copy V0.99 prebeta 5 from 4. May 2009

Отчёт EAC об извлечении, выполненном 27. февраля 2011, 16:02

Хор села Стрельниково / Стрельниковский хор Костромской земли

Дисковод: Optiarc DVD RW AD-7200S Adapter: 5 ID: 0

Режим чтения : Достоверность
Использование точного потока : Да
Отключение кэша аудио : Да
Использование указателей C2 : Нет

Коррекция смещения при чтении : 48
Способность читать области Lead-in и Lead-out : Нет
Заполнение пропущенных сэмплов тишиной : Да
Удаление блоков с тишиной в начале и конце : Нет
При вычислениях CRC использовались нулевые сэмплы : Да
Интерфейс : Встроенный Win32-интерфейс для Win NT/2000

Выходной формат : Внутренние WAV-операции
Формат сэмплов : 44.100 Гц; 16 бит; стерео

TOC извлечённого CD

Трек | Старт | Длительность | Начальный сектор | Конечный сектор
---------------------------------------------------------------------
1 | 0:00.00 | 2:18.03 | 0 | 10352
2 | 2:18.03 | 2:35.15 | 10353 | 21992
3 | 4:53.18 | 3:04.05 | 21993 | 35797
4 | 7:57.23 | 6:36.14 | 35798 | 65511
5 | 14:33.37 | 7:51.48 | 65512 | 100884
6 | 22:25.10 | 1:50.01 | 100885 | 109135
7 | 24:15.11 | 8:14.11 | 109136 | 146196
8 | 32:29.22 | 5:04.05 | 146197 | 169001
9 | 37:33.27 | 2:03.03 | 169002 | 178229
10 | 39:36.30 | 3:24.02 | 178230 | 193531
11 | 43:00.32 | 6:51.04 | 193532 | 224360
12 | 49:51.36 | 5:04.03 | 224361 | 247163
13 | 54:55.39 | 4:20.49 | 247164 | 266712

Характеристики диапазона извлечения и сообщения об ошибках

Выбранный диапазон

Имя файла K:\Audio\Spiritual_Religious_Chants\Россия\Старообрядцы\Хор села Стрельниково (Костромская область)\Стрельниковский хор Костромской земли.wav

Пиковый уровень 100.0 %
Качество диапазона 100.0 %
CRC теста B705BBA4
CRC копии B705BBA4
Копирование... OK

Ошибок не произошло

AccurateRip: сводка
Трек 1 нет в базе данных
Трек 2 нет в базе данных
Трек 3 нет в базе данных
Трек 4 нет в базе данных
Трек 5 нет в базе данных
Трек 6 нет в базе данных
Трек 7 нет в базе данных
Трек 8 нет в базе данных
Трек 9 нет в базе данных
Трек 10 нет в базе данных
Трек 11 нет в базе данных
Трек 12 нет в базе данных
Трек 13 нет в базе данных
Ни одного трека нет в базе AccurateRip

Конец отчёта
Обложки взяты с рутрекера. Индексные карты, лог и аудиофайл прилагаются.
Download

Войдите на сайт, чтобы увидеть полную информацию.

Как скачивать  ·   Правила трекера

[Профиль]  [ЛС] 

Иоанна

Стаж: 8 лет 11 месяцев

Сообщений: 40

Belarus

post 04-Мар-2011 23:37 (спустя 5 часов)

[Цитировать] 

Спаси, Господи!!!
[Профиль]  [ЛС] 

artgosha

post 02-Мар-2013 13:05 (спустя 1 год 11 месяцев)

[Цитировать] 

Благодарю
 

TRAFIK

Стаж: 1 год 4 месяца

Сообщений: 7

Ussr

post 10-Апр-2017 21:36 (спустя 4 года 1 месяц)

[Цитировать] 

Пожалуйста, дайте немного раздачи, спасибо!
[Профиль]  [ЛС] 

TRAFIK

Стаж: 1 год 4 месяца

Сообщений: 7

Ussr

post 14-Апр-2017 13:05 (спустя 3 дня)

[Цитировать] 

Люди добрые! Раздача скачана 193 раза - неужели никто не может поделиться???
[Профиль]  [ЛС] 
Показать сообщения:    
Ответить на тему

Текущее время: 16-Авг 10:51

Часовой пояс: GMT + 4



Вы не можете начинать темы
Вы не можете отвечать на сообщения
Вы не можете редактировать свои сообщения
Вы не можете удалять свои сообщения
Вы не можете голосовать в опросах
Вы не можете прикреплять файлы к сообщениям
Вы не можете скачивать файлы