Loading...
Error

(Церковная музыка и церковные хоры (lossless).) "Протодиакон Николай Платонов". (3CD). - 2007, AРЕ (image + .cue), lossless

Ответить на тему
Статистика раздачи
   
 
Автор Сообщение

СЕРГУЛЕТ

Стаж: 9 лет 10 месяцев

Сообщений: 2637

Откуда: LA ROMANA

Dominicanrep

post 06-Окт-2009 11:08

[Цитировать] 

"Протодиакон Николай Платонов". (3CD).

pic
Страна: Россия. Николай Платонов.
Жанр: Церковная музыка и церковные хоры (lossless).
Год выпуска: 2007
Формат: AРЕ (image + .cue)
Битрейт аудио: lossless
Продолжительность: 01:19:00+01:15:00+00:51:42
Содержание+Обложки
picpicpicpicpic
EAC log
СD1.
Exact Audio Copy V0.99 prebeta 5 from 4. May 2009

Отчёт EAC об извлечении, выполненном 6. октября 2009, 8:24

Николай Платонов / Церковное пение

Дисковод: ASUS BC-1205PT Adapter: 1 ID: 0

Режим чтения : Достоверность
Использование точного потока : Да
Отключение кэша аудио : Да
Использование указателей C2 : Нет

Коррекция смещения при чтении : 667
Способность читать области Lead-in и Lead-out : Нет
Заполнение пропущенных сэмплов тишиной : Да
Удаление блоков с тишиной в начале и конце : Нет
При вычислениях CRC использовались нулевые сэмплы : Да
Интерфейс : Встроенный Win32-интерфейс для Win NT/2000

Выходной формат : Внутренние WAV-операции
Формат сэмплов : 44.100 Гц; 16 бит; стерео

TOC извлечённого CD

Трек | Старт | Длительность | Начальный сектор | Конечный сектор
---------------------------------------------------------------------
1 | 0:00.00 | 4:01.29 | 0 | 18103
2 | 4:01.29 | 3:25.13 | 18104 | 33491
3 | 7:26.42 | 3:45.28 | 33492 | 50394
4 | 11:11.70 | 3:22.70 | 50395 | 65614
5 | 14:34.65 | 4:04.31 | 65615 | 83945
6 | 18:39.21 | 2:11.37 | 83946 | 93807
7 | 20:50.58 | 3:07.69 | 93808 | 107901
8 | 23:58.52 | 5:42.43 | 107902 | 133594
9 | 29:41.20 | 3:55.19 | 133595 | 151238
10 | 33:36.39 | 3:20.36 | 151239 | 166274
11 | 36:57.00 | 2:01.14 | 166275 | 175363
12 | 38:58.14 | 7:02.54 | 175364 | 207067
13 | 46:00.68 | 5:39.31 | 207068 | 232523

Характеристики диапазона извлечения и сообщения об ошибках

Выбранный диапазон

Имя файла C:\Николай Платонов - Церковное пение.wav

Пиковый уровень 96.6 %
Качество диапазона 100.0 %
CRC копии 8C9C00CD
Копирование... OK

Ошибок не произошло

CD2.
Exact Audio Copy V0.99 prebeta 5 from 4. May 2009

Отчёт EAC об извлечении, выполненном 5. октября 2009, 23:53

Протодиакон Николай Платонов / Православия День

Дисковод: ASUS BC-1205PT Adapter: 1 ID: 0

Режим чтения : Достоверность
Использование точного потока : Да
Отключение кэша аудио : Да
Использование указателей C2 : Нет

Коррекция смещения при чтении : 667
Способность читать области Lead-in и Lead-out : Нет
Заполнение пропущенных сэмплов тишиной : Да
Удаление блоков с тишиной в начале и конце : Нет
При вычислениях CRC использовались нулевые сэмплы : Да
Интерфейс : Встроенный Win32-интерфейс для Win NT/2000

Выходной формат : Внутренние WAV-операции
Формат сэмплов : 44.100 Гц; 16 бит; стерео

TOC извлечённого CD

Трек | Старт | Длительность | Начальный сектор | Конечный сектор
---------------------------------------------------------------------
1 | 0:00.00 | 7:01.18 | 0 | 31592
2 | 7:01.18 | 1:41.24 | 31593 | 39191
3 | 8:42.42 | 4:01.48 | 39192 | 57314
4 | 12:44.15 | 3:00.73 | 57315 | 70887
5 | 15:45.13 | 2:49.02 | 70888 | 83564
6 | 18:34.15 | 2:49.44 | 83565 | 96283
7 | 21:23.59 | 2:57.73 | 96284 | 109631
8 | 24:21.57 | 4:00.07 | 109632 | 127638
9 | 28:21.64 | 1:31.14 | 127639 | 134477
10 | 29:53.03 | 2:45.26 | 134478 | 146878
11 | 32:38.29 | 2:29.22 | 146879 | 158075
12 | 35:07.51 | 2:16.19 | 158076 | 168294
13 | 37:23.70 | 5:57.29 | 168295 | 195098
14 | 43:21.24 | 8:49.08 | 195099 | 234781
15 | 52:10.32 | 2:20.22 | 234782 | 245303
16 | 54:30.54 | 7:25.03 | 245304 | 278681
17 | 61:55.57 | 1:24.00 | 278682 | 284981
18 | 63:19.57 | 4:46.00 | 284982 | 306431
19 | 68:05.57 | 2:12.01 | 306432 | 316332
20 | 70:17.58 | 1:29.38 | 316333 | 323045
21 | 71:47.21 | 3:21.47 | 323046 | 338167
22 | 75:08.68 | 2:08.53 | 338168 | 347820

Характеристики диапазона извлечения и сообщения об ошибках

Выбранный диапазон

Имя файла C:\Протодиакон Николай Платонов - Православия День.wav

Пиковый уровень 96.1 %
Качество диапазона 99.9 %
CRC копии 758D438A
Копирование... OK

Ошибок не произошло

CD3.
Exact Audio Copy V0.99 prebeta 5 from 4. May 2009

Отчёт EAC об извлечении, выполненном 6. октября 2009, 8:40

Протодиакон Николай Платонов / Церковные, духовные и патриотические песни

Дисковод: ASUS BC-1205PT Adapter: 1 ID: 0

Режим чтения : Достоверность
Использование точного потока : Да
Отключение кэша аудио : Да
Использование указателей C2 : Нет

Коррекция смещения при чтении : 667
Способность читать области Lead-in и Lead-out : Нет
Заполнение пропущенных сэмплов тишиной : Да
Удаление блоков с тишиной в начале и конце : Нет
При вычислениях CRC использовались нулевые сэмплы : Да
Интерфейс : Встроенный Win32-интерфейс для Win NT/2000

Выходной формат : Внутренние WAV-операции
Формат сэмплов : 44.100 Гц; 16 бит; стерео

TOC извлечённого CD

Трек | Старт | Длительность | Начальный сектор | Конечный сектор
---------------------------------------------------------------------
1 | 0:00.00 | 1:33.14 | 0 | 6988
2 | 1:33.14 | 2:51.38 | 6989 | 19851
3 | 4:24.52 | 1:00.07 | 19852 | 24358
4 | 5:24.59 | 5:44.18 | 24359 | 50176
5 | 11:09.02 | 2:22.46 | 50177 | 60872
6 | 13:31.48 | 2:29.00 | 60873 | 72047
7 | 16:00.48 | 1:23.00 | 72048 | 78272
8 | 17:23.48 | 2:46.00 | 78273 | 90722
9 | 20:09.48 | 2:49.05 | 90723 | 103402
10 | 22:58.53 | 2:43.61 | 103403 | 115688
11 | 25:42.39 | 3:02.00 | 115689 | 129338
12 | 28:44.39 | 4:45.52 | 129339 | 150765
13 | 33:30.16 | 4:08.55 | 150766 | 169420
14 | 37:38.71 | 4:29.00 | 169421 | 189595
15 | 42:07.71 | 4:46.23 | 189596 | 211068
16 | 46:54.19 | 4:34.01 | 211069 | 231619
17 | 51:28.20 | 4:03.55 | 231620 | 249899
18 | 55:32.00 | 3:12.00 | 249900 | 264299
19 | 58:44.00 | 2:36.68 | 264300 | 276067
20 | 61:20.68 | 7:07.67 | 276068 | 308159
21 | 68:28.60 | 5:44.00 | 308160 | 333959
22 | 74:12.60 | 2:45.63 | 333960 | 346397
23 | 76:58.48 | 2:34.00 | 346398 | 357947

Характеристики диапазона извлечения и сообщения об ошибках

Выбранный диапазон

Имя файла C:\Протодиакон Николай Платонов - Церковные, духовные и патриотические песни.wav

Пиковый уровень 99.4 %
Качество диапазона 100.0 %
CRC копии A4083BC0
Копирование... OK

Ошибок не произошло
Конец отчёта
Download

Войдите на сайт, чтобы увидеть полную информацию.

Как скачивать  ·   Правила трекера



Последний раз редактировалось: СЕРГУЛЕТ (2010-04-16 06:19), всего редактировалось 1 раз
[Профиль]  [ЛС] 

snb

Стаж: 8 лет 9 месяцев

Сообщений: 13

post 12-Апр-2010 16:01 (спустя 6 месяцев)

[Цитировать] 

Вчера слушал его вживую. Спаси Господи, о. Николая!
[Профиль]  [ЛС] 

pcus67

Стаж: 9 лет

Сообщений: 2

Italy

post 12-Апр-2010 16:53 (спустя 52 минуты)

[Цитировать] 

please reseed
[Профиль]  [ЛС] 

snb

Стаж: 8 лет 9 месяцев

Сообщений: 13

post 13-Апр-2010 13:05 (спустя 20 часов)

[Цитировать] 

Други, а как скачать?
[Профиль]  [ЛС] 

СЕРГУЛЕТ

Стаж: 9 лет 10 месяцев

Сообщений: 2637

Откуда: LA ROMANA

Dominicanrep

post 16-Апр-2010 06:21 (спустя 2 дня 17 часов)

[Цитировать] 

snb
Оживил.
[Профиль]  [ЛС] 

Александр Донцов

Стаж: 8 лет 11 месяцев

Сообщений: 454

post 16-Апр-2010 09:43 (спустя 3 часа)

[Цитировать] 

Христос воскресе!

Поставил на закачку. Послушаю.
[Профиль]  [ЛС] 

Татьяна_М

Стаж: 8 лет 11 месяцев

Сообщений: 99

Откуда: Москва

Russia

post 23-Мар-2011 00:20 (спустя 11 месяцев)

[Цитировать] 

Не могу ничего понять - как это открыть или записать?
[Профиль]  [ЛС] 

stepan-frunze

Стаж: 9 лет 9 месяцев

Сообщений: 2563

Russia

post 20-Мар-2013 17:48 (спустя 1 год 11 месяцев)

[Цитировать] 

Спаси Господи
[Профиль]  [ЛС] 

otamanchuk

Стаж: 7 лет 10 месяцев

Сообщений: 2

Ukraine

post 16-Янв-2014 11:48 (спустя 9 месяцев)

[Цитировать] 

Господа скачавшие! Помогите скачать бедным-нескачавшим! Мир Вам за это и благодать!!!
[Профиль]  [ЛС] 

TRAFIK

Стаж: 1 год 8 месяцев

Сообщений: 7

Ussr

post 10-Апр-2017 21:28 (спустя 3 года 2 месяца)

[Цитировать] 

Доброый вечер, пожалуйста, дайте немного раздачи, спасибо!
[Профиль]  [ЛС] 
Показать сообщения:    
Ответить на тему

Текущее время: 10-Дек 19:20

Часовой пояс: GMT + 4



Вы не можете начинать темы
Вы не можете отвечать на сообщения
Вы не можете редактировать свои сообщения
Вы не можете удалять свои сообщения
Вы не можете голосовать в опросах
Вы не можете прикреплять файлы к сообщениям
Вы не можете скачивать файлы