Loading...
Error

(Церковная музыка и церковные хоры (lossless).) "Елико отстоятъ Востоцы отъ Западъ". - 2011, APE (image + .cue), lossless

Ответить на тему
Статистика раздачи
   
 
Автор Сообщение

СЕРГУЛЕТ

Стаж: 9 лет 6 месяцев

Сообщений: 2637

Откуда: LA ROMANA

Dominicanrep

post 22-Сен-2011 09:13

[Цитировать] 

"Елико отстоятъ Востоцы отъ Западъ".

pic
Страна: Россия.
Жанр: Церковная музыка и церковные хоры (lossless).
Год выпуска: 2011
Формат: APE (image + .cue)
Битрейт аудио: lossless
Продолжительность: 01:09:52
Содержание+Обложки
picpicpicpicpicpicpicpicpicpicpic
EAC log
Exact Audio Copy V1.0 beta 2 from 29. April 2011

Отчёт EAC об извлечении, выполненном 21. сентября 2011, 15:37

Сводный хор "Восток и Запад" / Елико отстоятъ Востоцы отъ Западъ

Дисковод: ASUS DRW-2014L1T Adapter: 2 ID: 1

Режим чтения : Достоверность
Использование точного потока : Да
Отключение кэша аудио : Да
Использование указателей C2 : Нет

Коррекция смещения при чтении : 6
Способность читать области Lead-in и Lead-out : Нет
Заполнение пропущенных сэмплов тишиной : Да
Удаление блоков с тишиной в начале и конце : Нет
При вычислениях CRC использовались нулевые сэмплы : Да
Интерфейс : Встроенный Win32-интерфейс для Win NT/2000

Выходной формат : Внутренние WAV-операции
Формат сэмплов : 44.100 Гц; 16 бит; стерео

TOC извлечённого CD

Трек | Старт | Длительность | Начальный сектор | Конечный сектор
---------------------------------------------------------------------
1 | 0:00.00 | 1:13.05 | 0 | 5479
2 | 1:13.05 | 2:59.06 | 5480 | 18910
3 | 4:12.11 | 3:49.74 | 18911 | 36159
4 | 8:02.10 | 4:01.66 | 36160 | 54300
5 | 12:04.01 | 2:20.04 | 54301 | 64804
6 | 14:24.05 | 2:13.19 | 64805 | 74798
7 | 16:37.24 | 5:30.18 | 74799 | 99566
8 | 22:07.42 | 2:55.14 | 99567 | 112705
9 | 25:02.56 | 4:05.45 | 112706 | 131125
10 | 29:08.26 | 5:23.31 | 131126 | 155381
11 | 34:31.57 | 2:11.61 | 155382 | 165267
12 | 36:43.43 | 3:16.56 | 165268 | 180023
13 | 40:00.24 | 6:00.56 | 180024 | 207079
14 | 46:01.05 | 7:22.15 | 207080 | 240244
15 | 53:23.20 | 7:01.37 | 240245 | 271856
16 | 60:24.57 | 5:37.55 | 271857 | 297186
17 | 66:02.37 | 2:04.36 | 297187 | 306522
18 | 68:06.73 | 1:45.13 | 306523 | 314410

Характеристики диапазона извлечения и сообщения об ошибках

Выбранный диапазон

Имя файла C:\Сводный хор ''Восток и Запад'' - Елико отстоятъ Востоцы отъ Западъ.wav

Пиковый уровень 93.5 %
Скорость извлечения 0.7 X
Качество диапазона 99.9 %
CRC копии 8CB7863B
Копирование... OK

Ошибок не произошло

Конец отчёта
Дополнительная информация: Новая православная хоровая музыка Геннадия Лапаева и Курта Сандера.
Сводный хор "Восток и Запад".
Дирижер Петр Ермихов.
Download

Войдите на сайт, чтобы увидеть полную информацию.

Как скачивать  ·   Правила трекера

[Профиль]  [ЛС] 

Странник1

Стаж: 8 лет 8 месяцев

Сообщений: 2307

Russia

post 24-Сен-2011 15:14 (спустя 2 дня 6 часов)

[Цитировать] 

Спасибо!
[Профиль]  [ЛС] 

TRAFIK

Стаж: 1 год 4 месяца

Сообщений: 7

Ussr

post 10-Апр-2017 21:26 (спустя 5 лет 6 месяцев)

[Цитировать] 

Пожалуйста, дайте немного раздачи, спасибо!
[Профиль]  [ЛС] 
Показать сообщения:    
Ответить на тему

Текущее время: 19-Авг 19:29

Часовой пояс: GMT + 4



Вы не можете начинать темы
Вы не можете отвечать на сообщения
Вы не можете редактировать свои сообщения
Вы не можете удалять свои сообщения
Вы не можете голосовать в опросах
Вы не можете прикреплять файлы к сообщениям
Вы не можете скачивать файлы