Loading...
Error

(Церковная музыка и церковные хоры.) "Помощник и Покровитель". Великое повечерие с Покаянным Каноном преподобного Андрея Критского. 5CD. - 2007, APE (image + .cue), lossless

Ответить на тему
Статистика раздачи
   
 
Автор Сообщение

СЕРГУЛЕТ

Стаж: 9 лет 6 месяцев

Сообщений: 2637

Откуда: LA ROMANA

Dominicanrep

post 02-Сен-2009 20:36

[Цитировать] 

"Помощник и Покровитель". Великое повечерие с Покаянным Каноном преподобного Андрея Критского. 5CD.

pic
Страна: Россия. Московское Подворье Троице Сергиевой Лавры.
Жанр: Церковная музыка и церковные хоры.
Год выпуска: 2007
Формат: APE (image + .cue)
Битрейт аудио: lossless
Продолжительность: 247:38
Трэклист:
CD1.
1. Благословен Бог наш...
2. Внегда призвати ми...
3. Снами Бог...
4. Пресвятая Владычице Богородице, моли о нас грешных...
5. Невидимых враг моих неусыпание веси Господи...
6. Прийдите, поклонимся Цареви нашему Богу...
7. Помилуй нас, Господи, помилуй нас...
8. Прийдите, поклонимся Цареви нашему Богу...
9. Господи сил, с нами буди...
10. Слава Тебе, Христе Боже, упование наше, слава Тебе...

CD2.
1. Помощник и покровитель...
2. Вонми, небо, и возглаголю...
3. На, недвижимем, Христе, камени заповедей Твоих...
4. Услыша пророк пришествие Твое, Господи, и убояся...
5. От нощи утренююща, Человеколюбче...
6. Возопих всем сердцем моим к щедрому Богу...
7. Душе моя, душе моя...
8. Согрешихом, беззаконновахом, неправдовахом...
9. Егоже воинства небесная славят...
10. Безсеменнаго зачатия рождество несказанное...

CD3.
1. Помощник и покровитель...
2. Вонми, небо, и возглаголю...
3. Утверди, Господи, на камени заповедей Твоих...
4. Услыша пророк пришествие Твое, Господи, и убояся...
5. От нощи утренююща, Человеколюбче...
6. Возопих всем сердцем моим к щедрому Богу...
7. Душе моя, душе моя...
8. Согрешихом, беззаконновахом, неправдовахом...
9. Егоже воинства небесная славят...
10. Безсеменнаго зачатия рождество несказанное...

CD4.
1. Помощник и покровитель...
2. Вонми, небо, и возглаголю...
3. Утверди, Господи, на камени заповедей Твоих...
4. Услыша пророк пришествие Твое, Господи, и убояся...
5. От нощи утренююща, Человеколюбче...
6. Возопих всем сердцем моим к щедрому Богу...
7. Душе моя, душе моя...
8. Согрешихом, беззаконновахом, неправдовахом...
9. Егоже воинства небесная славят...
10. Безсеменнаго зачатия рождество несказанное...

CD5.
1. Помощник и покровитель...
2. Видите, видите, яко Аз есмь Бог...
3. Утверди, Господи, на камени заповедей Твоих...
4. Услыша пророк пришествие Твое, Господи, и убояся...
5. От нощи утренююща, Человеколюбче...
6. Возопих всем сердцем моим к щедрому Богу...
7. Душе моя, душе моя...
8. Согрешихом, беззаконновахом, неправдовахом...
9. Егоже воинства небесная славят...
10. Безсеменнаго зачатия рождество несказанное...
Дополнительная информация: Служит настоятель Подворья архимандрит Лонгин (Корчагин) с братией.
Хор Московского Подворбя Свято-Троицкой Сергиевой Лавры п/у Владимира Горбика.
Чтецы: иеромонах Дионисий (Колесник), иеромонах Нектарий (Морозов), иеродиакон Пахомий (Брусков), послушник Георгий (Нестеров).
Запись произведена на первой седмице Великого поста 2002 года в Троицком храме Московского Подворья Свято-Троицкой Сергиевой Лавры.
EAC log
Exact Audio Copy V0.99 prebeta 5 from 4. May 2009

Отчёт EAC об извлечении, выполненном 2. сентября 2009, 18:56

Хор МПТСЛ / ВЕЛИКИЙ КАНОН-1

Дисковод: ASUS BC-1205PT Adapter: 1 ID: 0

Режим чтения : Достоверность
Использование точного потока : Да
Отключение кэша аудио : Да
Использование указателей C2 : Нет

Коррекция смещения при чтении : 667
Способность читать области Lead-in и Lead-out : Нет
Заполнение пропущенных сэмплов тишиной : Да
Удаление блоков с тишиной в начале и конце : Нет
При вычислениях CRC использовались нулевые сэмплы : Да
Интерфейс : Встроенный Win32-интерфейс для Win NT/2000

Выходной формат : Внутренние WAV-операции
Формат сэмплов : 44.100 Гц; 16 бит; стерео

TOC извлечённого CD

Трек | Старт | Длительность | Начальный сектор | Конечный сектор
---------------------------------------------------------------------
1 | 0:00.00 | 2:13.00 | 0 | 9974
2 | 2:13.00 | 8:06.45 | 9975 | 46469
3 | 10:19.45 | 9:17.74 | 46470 | 88318
4 | 19:37.44 | 2:58.66 | 88319 | 101734
5 | 22:36.35 | 7:34.72 | 101735 | 135856
6 | 30:11.32 | 7:05.18 | 135857 | 167749
7 | 37:16.50 | 4:26.66 | 167750 | 187765
8 | 41:43.41 | 4:39.68 | 187766 | 208758
9 | 46:23.34 | 18:23.48 | 208759 | 291531
10 | 64:47.07 | 4:07.61 | 291532 | 310117

Характеристики диапазона извлечения и сообщения об ошибках

Выбранный диапазон

Имя файла C:\Users\Сергулет\Documents\Хор МПТСЛ - ВЕЛИКИЙ КАНОН-1.wav

Пиковый уровень 73.5 %
Качество диапазона 99.9 %
CRC копии E3DF5511
Копирование... OK

Ошибок не произошло

Конец отчёта

CD2
Exact Audio Copy V0.99 prebeta 5 from 4. May 2009

Отчёт EAC об извлечении, выполненном 2. сентября 2009, 19:08

Хор МПТСЛ / Великий канон-2

Дисковод: ASUS BC-1205PT Adapter: 1 ID: 0

Режим чтения : Достоверность
Использование точного потока : Да
Отключение кэша аудио : Да
Использование указателей C2 : Нет

Коррекция смещения при чтении : 667
Способность читать области Lead-in и Lead-out : Нет
Заполнение пропущенных сэмплов тишиной : Да
Удаление блоков с тишиной в начале и конце : Нет
При вычислениях CRC использовались нулевые сэмплы : Да
Интерфейс : Встроенный Win32-интерфейс для Win NT/2000

Выходной формат : Внутренние WAV-операции
Формат сэмплов : 44.100 Гц; 16 бит; стерео

TOC извлечённого CD

Трек | Старт | Длительность | Начальный сектор | Конечный сектор
---------------------------------------------------------------------
1 | 0:00.00 | 4:16.00 | 0 | 19199
2 | 4:16.00 | 3:56.00 | 19200 | 36899
3 | 8:12.00 | 2:46.00 | 36900 | 49349
4 | 10:58.00 | 6:02.36 | 49350 | 76535
5 | 17:00.36 | 3:58.21 | 76536 | 94406
6 | 20:58.57 | 3:34.39 | 94407 | 110495
7 | 24:33.21 | 2:16.54 | 110496 | 120749
8 | 26:50.00 | 5:07.36 | 120750 | 143810
9 | 31:57.36 | 4:37.21 | 143811 | 164606
10 | 36:34.57 | 7:01.18 | 164607 | 196199

Характеристики диапазона извлечения и сообщения об ошибках

Выбранный диапазон

Имя файла C:\Users\Сергулет\Documents\Хор МПТСЛ - Великий канон-2.wav

Пиковый уровень 75.0 %
Качество диапазона 99.9 %
CRC копии 6AEFB3D9
Копирование... OK

Ошибок не произошло

Конец отчёта

CD3
Exact Audio Copy V0.99 prebeta 5 from 4. May 2009

Отчёт EAC об извлечении, выполненном 2. сентября 2009, 19:19

Хор МПТСЛ / Великий канон-3

Дисковод: ASUS BC-1205PT Adapter: 1 ID: 0

Режим чтения : Достоверность
Использование точного потока : Да
Отключение кэша аудио : Да
Использование указателей C2 : Нет

Коррекция смещения при чтении : 667
Способность читать области Lead-in и Lead-out : Нет
Заполнение пропущенных сэмплов тишиной : Да
Удаление блоков с тишиной в начале и конце : Нет
При вычислениях CRC использовались нулевые сэмплы : Да
Интерфейс : Встроенный Win32-интерфейс для Win NT/2000

Выходной формат : Внутренние WAV-операции
Формат сэмплов : 44.100 Гц; 16 бит; стерео

TOC извлечённого CD

Трек | Старт | Длительность | Начальный сектор | Конечный сектор
---------------------------------------------------------------------
1 | 0:00.00 | 4:15.45 | 0 | 19169
2 | 4:15.45 | 3:51.45 | 19170 | 36539
3 | 8:07.15 | 3:30.48 | 36540 | 52337
4 | 11:37.63 | 5:32.48 | 52338 | 77285
5 | 17:10.36 | 4:14.24 | 77286 | 96359
6 | 21:24.60 | 4:16.72 | 96360 | 115631
7 | 25:41.57 | 2:05.33 | 115632 | 125039
8 | 27:47.15 | 5:29.00 | 125040 | 149714
9 | 33:16.15 | 4:42.57 | 149715 | 170921
10 | 37:58.72 | 6:15.03 | 170922 | 199049

Характеристики диапазона извлечения и сообщения об ошибках

Выбранный диапазон

Имя файла C:\Users\Сергулет\Documents\Хор МПТСЛ - Великий канон-3.wav

Пиковый уровень 68.6 %
Качество диапазона 100.0 %
CRC копии C164A0AB
Копирование... OK

Ошибок не произошло

Конец отчёта

CD4
Exact Audio Copy V0.99 prebeta 5 from 4. May 2009

Отчёт EAC об извлечении, выполненном 2. сентября 2009, 19:29

Хор МПТСЛ / Великий канон-4

Дисковод: ASUS BC-1205PT Adapter: 1 ID: 0

Режим чтения : Достоверность
Использование точного потока : Да
Отключение кэша аудио : Да
Использование указателей C2 : Нет

Коррекция смещения при чтении : 667
Способность читать области Lead-in и Lead-out : Нет
Заполнение пропущенных сэмплов тишиной : Да
Удаление блоков с тишиной в начале и конце : Нет
При вычислениях CRC использовались нулевые сэмплы : Да
Интерфейс : Встроенный Win32-интерфейс для Win NT/2000

Выходной формат : Внутренние WAV-операции
Формат сэмплов : 44.100 Гц; 16 бит; стерео

TOC извлечённого CD

Трек | Старт | Длительность | Начальный сектор | Конечный сектор
---------------------------------------------------------------------
1 | 0:00.00 | 4:19.69 | 0 | 19493
2 | 4:19.69 | 6:32.54 | 19494 | 48947
3 | 10:52.48 | 4:16.72 | 48948 | 68219
4 | 15:09.45 | 5:24.27 | 68220 | 92546
5 | 20:33.72 | 4:15.18 | 92547 | 111689
6 | 24:49.15 | 3:42.39 | 111690 | 128378
7 | 28:31.54 | 2:05.57 | 128379 | 137810
8 | 30:37.36 | 4:33.00 | 137811 | 158285
9 | 35:10.36 | 4:06.42 | 158286 | 176777
10 | 39:17.03 | 6:27.72 | 176778 | 205874

Характеристики диапазона извлечения и сообщения об ошибках

Выбранный диапазон

Имя файла C:\Users\Сергулет\Documents\Хор МПТСЛ - Великий канон-4.wav

Пиковый уровень 80.0 %
Качество диапазона 100.0 %
CRC копии 22D1A43F
Копирование... OK

Ошибок не произошло

Конец отчёта

CD5.
Exact Audio Copy V0.99 prebeta 5 from 4. May 2009

Отчёт EAC об извлечении, выполненном 2. сентября 2009, 19:41

Хор МПТСЛ / Великий Канон-5

Дисковод: ASUS BC-1205PT Adapter: 1 ID: 0

Режим чтения : Достоверность
Использование точного потока : Да
Отключение кэша аудио : Да
Использование указателей C2 : Нет

Коррекция смещения при чтении : 667
Способность читать области Lead-in и Lead-out : Нет
Заполнение пропущенных сэмплов тишиной : Да
Удаление блоков с тишиной в начале и конце : Нет
При вычислениях CRC использовались нулевые сэмплы : Да
Интерфейс : Встроенный Win32-интерфейс для Win NT/2000

Выходной формат : Внутренние WAV-операции
Формат сэмплов : 44.100 Гц; 16 бит; стерео

TOC извлечённого CD

Трек | Старт | Длительность | Начальный сектор | Конечный сектор
---------------------------------------------------------------------
1 | 0:00.00 | 4:19.00 | 0 | 19424
2 | 4:19.00 | 4:40.00 | 19425 | 40424
3 | 8:59.00 | 3:30.00 | 40425 | 56174
4 | 12:29.00 | 5:55.00 | 56175 | 82799
5 | 18:24.00 | 3:37.00 | 82800 | 99074
6 | 22:01.00 | 3:44.00 | 99075 | 115874
7 | 25:45.00 | 2:19.00 | 115875 | 126299
8 | 28:04.00 | 5:26.00 | 126300 | 150749
9 | 33:30.00 | 4:59.00 | 150750 | 173174
10 | 38:29.00 | 7:10.00 | 173175 | 205424

Характеристики диапазона извлечения и сообщения об ошибках

Выбранный диапазон

Имя файла C:\Users\Сергулет\Documents\Хор МПТСЛ - Великий Канон-5.wav

Пиковый уровень 71.4 %
Качество диапазона 100.0 %
CRC копии C31F740B
Копирование... OK

Ошибок не произошло

Конец отчёта
Download

Войдите на сайт, чтобы увидеть полную информацию.

Как скачивать  ·   Правила трекера

[Профиль]  [ЛС] 

Manul

Стаж: 9 лет

Сообщений: 155

Ussr

post 06-Сен-2009 20:08 (спустя 3 дня)

[Цитировать] 

СЕРГУЛЕТ
Хотелось бы полный комплект сканов этого издания Embarassed
[Профиль]  [ЛС] 

крот

Стаж: 7 лет 8 месяцев

Сообщений: 1

Откуда: Мариуполь

Ukraine

post 07-Мар-2011 22:44 (спустя 1 год 6 месяцев)

[Цитировать] 

[Профиль]  [ЛС] 

Странник1

Стаж: 8 лет 8 месяцев

Сообщений: 2307

Russia

post 24-Сен-2011 15:21 (спустя 6 месяцев)

[Цитировать] 

Благодарю
[Профиль]  [ЛС] 

shymsknik

Стаж: 7 лет 7 месяцев

Сообщений: 181

Russia

post 06-Июн-2013 00:55 (спустя 1 год 8 месяцев)

[Цитировать] 

Спаси Господь.
[Профиль]  [ЛС] 

stepan-frunze

Стаж: 9 лет 5 месяцев

Сообщений: 2563

Russia

post 26-Фев-2014 03:01 (спустя 8 месяцев)

[Цитировать] 

Спаси Господь.
[Профиль]  [ЛС] 

oiodj

Стаж: 3 года 10 месяцев

Сообщений: 1

post 27-Фев-2017 14:43 (спустя 3 года)

[Цитировать] 

Да пребудет с вами Дух Истины. Всегда!
[Профиль]  [ЛС] 
Показать сообщения:    
Ответить на тему

Текущее время: 19-Авг 19:29

Часовой пояс: GMT + 4



Вы не можете начинать темы
Вы не можете отвечать на сообщения
Вы не можете редактировать свои сообщения
Вы не можете удалять свои сообщения
Вы не можете голосовать в опросах
Вы не можете прикреплять файлы к сообщениям
Вы не можете скачивать файлы