Loading...
Error

(Церковная музыка и церковные хоры (lossless).) "Соборъ". Собрание богослужебных песнопений Православных церквей разных народов. - 2005, APE (image + .cue), lossless

Ответить на тему
Статистика раздачи
   
 
Автор Сообщение

СЕРГУЛЕТ

Стаж: 9 лет 6 месяцев

Сообщений: 2637

Откуда: LA ROMANA

Dominicanrep

post 20-Окт-2009 22:23

[Цитировать] 

"Соборъ". Собрание богослужебных песнопений Православных церквей разных народов.

pic
Страна: Россия. Продюсерский центр Игоря Матвиенко.
Жанр: Церковная музыка и церковные хоры (lossless).
Год выпуска: 2005
Формат: APE (image + .cue)
Битрейт аудио: lossless
Продолжительность: 01:08:50
Трэклист:
1. Полиелей****
2. «Приидите, поклонимся»*****
3. Величание на Рождество Христово******
4. «Всемирную славу…» глас 1
5. «Царю небесный…» глас 6**
6. Сербикон глас 8***
7. Тропарь св. Нине глас 4*****
8. Тропарь и богородичен воскресные глас 1**
9. «Взбранной Воеводе…» глас 8***
10. Херувимская песнь глас 5**
11. Сербский киноник глас 1***
12. Тропарь св. Георгию Победоносцу глас 4*****
13. Песни троичны св. Григория Синаита глас 1**
14. Стихира на целование Плащаницы глас 5*
15. Тропарь Пасхи (на разных языках)
а) Знаменный (на славянском)
б) Византийский (на греческом)
в) Сербский (на сербском)
г) Карталино-Кахетинский (на грузинском)

* знаменный распев
** болгарский распев
*** сербский распев
**** византийский распев
***** карталино-кахетинский (грузинский) распев
****** путевой, трехголосный (строчной) распев
EAC log
Exact Audio Copy V0.99 prebeta 5 from 4. May 2009

Отчёт EAC об извлечении, выполненном 19. октября 2009, 21:14

Иеродиакон Герман / Собор

Дисковод: ASUS BC-1205PT Adapter: 1 ID: 0

Режим чтения : Достоверность
Использование точного потока : Да
Отключение кэша аудио : Да
Использование указателей C2 : Нет

Коррекция смещения при чтении : 667
Способность читать области Lead-in и Lead-out : Нет
Заполнение пропущенных сэмплов тишиной : Да
Удаление блоков с тишиной в начале и конце : Нет
При вычислениях CRC использовались нулевые сэмплы : Да
Интерфейс : Встроенный Win32-интерфейс для Win NT/2000

Выходной формат : Внутренние WAV-операции
Формат сэмплов : 44.100 Гц; 16 бит; стерео

TOC извлечённого CD

Трек | Старт | Длительность | Начальный сектор | Конечный сектор
---------------------------------------------------------------------
1 | 0:00.00 | 14:42.69 | 0 | 66218
2 | 14:42.69 | 2:43.17 | 66219 | 78460
3 | 17:26.11 | 2:56.18 | 78461 | 91678
4 | 20:22.29 | 3:08.73 | 91679 | 105851
5 | 23:31.27 | 3:18.48 | 105852 | 120749
6 | 26:50.00 | 3:19.58 | 120750 | 135732
7 | 30:09.58 | 3:49.71 | 135733 | 152978
8 | 33:59.54 | 3:07.37 | 152979 | 167040
9 | 37:07.16 | 2:22.33 | 167041 | 177723
10 | 39:29.49 | 7:44.74 | 177724 | 212597
11 | 47:14.48 | 2:44.17 | 212598 | 224914
12 | 49:58.65 | 1:56.18 | 224915 | 233632
13 | 51:55.08 | 6:29.58 | 233633 | 262865
14 | 58:24.66 | 6:07.40 | 262866 | 290430
15 | 64:32.31 | 4:16.12 | 290431 | 309642

Характеристики диапазона извлечения и сообщения об ошибках

Выбранный диапазон

Имя файла C:\Иеродиакон Герман - Собор.wav

Пиковый уровень 97.0 %
Качество диапазона 99.9 %
CRC копии 9BF63912
Копирование... OK

Ошибок не произошло
Конец отчёта
Download

Войдите на сайт, чтобы увидеть полную информацию.

Как скачивать  ·   Правила трекера

[Профиль]  [ЛС] 

Ilitch

Стаж: 9 лет 6 месяцев

Сообщений: 18

Откуда: Кострома

Russia

post 21-Янв-2011 19:48 (спустя 1 год 3 месяца)

[Цитировать] 

Дааа, скачать - целое дело...
А Сергулету вновь спасибо.
[Профиль]  [ЛС] 

CEPBEP4

Стаж: 7 лет 5 месяцев

Сообщений: 146

Откуда: ОРЕНБУРГ

Russia

post 21-Мар-2012 21:43 (спустя 1 год 2 месяца)

[Цитировать] 

Прошу сидеров включить свои компьютеры и раздать! Smile А Сергулету как всегда спасибо.

_________________
pic
pic 100 Мбит/с pic 100 Мбит/с pic
[Профиль]  [ЛС] 

vika010288

Стаж: 9 лет 1 месяц

Сообщений: 456

Georgia

post 21-Мар-2012 23:19 (спустя 1 час 35 минут)

[Цитировать] 

CEPBEP4 писал(а):

Прошу сидеров включить свои компьютеры и раздать! Smile А Сергулету как всегда спасибо.
Присоединяюсь.
[Профиль]  [ЛС] 

gavrik.s

Стаж: 6 лет 7 месяцев

Сообщений: 85

post 04-Май-2012 18:57 (спустя 1 месяц 13 дней)

[Цитировать] 

Очень понравилось.Хорошо!
Спасибо!
[Профиль]  [ЛС] 

dandoddds

Стаж: 2 года 5 месяцев

Сообщений: 1

post 23-Фев-2017 12:34 (спустя 4 года 9 месяцев)

[Цитировать] 

А что случилось с раздачей?
[Профиль]  [ЛС] 
Показать сообщения:    
Ответить на тему

Текущее время: 21-Авг 06:09

Часовой пояс: GMT + 4



Вы не можете начинать темы
Вы не можете отвечать на сообщения
Вы не можете редактировать свои сообщения
Вы не можете удалять свои сообщения
Вы не можете голосовать в опросах
Вы не можете прикреплять файлы к сообщениям
Вы не можете скачивать файлы