Loading...
Error

(Церковная музыка и церковные хоры (lossless).) "Поемъ и славимъ". Песнопения православного богослужения. Аудиопроект "Хвалите отроцы Господа". Выпуск 2. - 2009, APE (image + .cue), lossless

Ответить на тему
Статистика раздачи
   
 
Автор Сообщение

СЕРГУЛЕТ

Стаж: 9 лет 10 месяцев

Сообщений: 2637

Откуда: LA ROMANA

Dominicanrep

post 19-Окт-2009 23:22

[Цитировать] 

"Поемъ и славимъ". Песнопения православного богослужения. Аудиопроект "Хвалите отроцы Господа". Выпуск 2.

pic
Страна: Россия. Печенкин Глеб.
Жанр: Церковная музыка и церковные хоры (lossless).
Год выпуска: 2009
Формат: APE (image + .cue)
Битрейт аудио: lossless
Продолжительность: 01:02:45
Обложки+Содержание
picpicpicpic
Дополнительная информация: Исполнители - певчая станица выпускников Знаменно-певчей школы (г. Москва).
Руководитель - головщик и учитель пения Глеб Печенкин.
Выпуск 1: http://pravtor.ru/viewtopic.php?t=3720
EAC log
Exact Audio Copy V0.99 prebeta 5 from 4. May 2009

Отчёт EAC об извлечении, выполненном 19. октября 2009, 20:19

Певчая станица выпускников Знаменно-певчей школы для отроков / Поем и славим

Дисковод: ASUS BC-1205PT Adapter: 1 ID: 0

Режим чтения : Достоверность
Использование точного потока : Да
Отключение кэша аудио : Да
Использование указателей C2 : Нет

Коррекция смещения при чтении : 667
Способность читать области Lead-in и Lead-out : Нет
Заполнение пропущенных сэмплов тишиной : Да
Удаление блоков с тишиной в начале и конце : Нет
При вычислениях CRC использовались нулевые сэмплы : Да
Интерфейс : Встроенный Win32-интерфейс для Win NT/2000

Выходной формат : Внутренние WAV-операции
Формат сэмплов : 44.100 Гц; 16 бит; стерео

TOC извлечённого CD

Трек | Старт | Длительность | Начальный сектор | Конечный сектор
---------------------------------------------------------------------
1 | 0:00.00 | 2:51.56 | 0 | 12880
2 | 2:51.56 | 2:23.72 | 12881 | 23677
3 | 5:15.53 | 2:06.16 | 23678 | 33143
4 | 7:21.69 | 2:45.52 | 33144 | 45570
5 | 10:07.46 | 3:29.07 | 45571 | 61252
6 | 13:36.53 | 2:01.00 | 61253 | 70327
7 | 15:37.53 | 2:20.34 | 70328 | 80861
8 | 17:58.12 | 2:07.26 | 80862 | 90412
9 | 20:05.38 | 3:57.05 | 90413 | 108192
10 | 24:02.43 | 1:05.27 | 108193 | 113094
11 | 25:07.70 | 3:18.08 | 113095 | 127952
12 | 28:26.03 | 2:53.56 | 127953 | 140983
13 | 31:19.59 | 3:14.48 | 140984 | 155581
14 | 34:34.32 | 2:42.48 | 155582 | 167779
15 | 37:17.05 | 4:32.00 | 167780 | 188179
16 | 41:49.05 | 2:34.45 | 188180 | 199774
17 | 44:23.50 | 5:42.52 | 199775 | 225476
18 | 50:06.27 | 2:18.11 | 225477 | 235837
19 | 52:24.38 | 2:29.21 | 235838 | 247033
20 | 54:53.59 | 0:29.47 | 247034 | 249255
21 | 55:23.31 | 8:29.69 | 249256 | 287499
22 | 63:53.25 | 1:46.63 | 287500 | 295512

Характеристики диапазона извлечения и сообщения об ошибках

Выбранный диапазон

Имя файла C:\Певчая станица выпускников Знаменно-певчей школы для отроков - Поем и славим.wav

Пиковый уровень 100.0 %
Качество диапазона 100.0 %
CRC копии 789CBAC0
Копирование... OK

Ошибок не произошло
Конец отчёта
Download

Войдите на сайт, чтобы увидеть полную информацию.

Как скачивать  ·   Правила трекера



Последний раз редактировалось: СЕРГУЛЕТ (2011-07-10 10:19), всего редактировалось 2 раз(а)
[Профиль]  [ЛС] 

etrusk

Стаж: 8 лет 2 месяца

Сообщений: 128

Russia

post 30-Май-2011 23:41 (спустя 1 год 7 месяцев)

[Цитировать] 

Спаси Бог!
Просьба: возможно ли обложки обновить?
И еще: хорошо бы переложить в подфорум "Песнопения знаменного распева", а то искать затруднительно.
[Профиль]  [ЛС] 

Wlad_login

Стаж: 1 год 10 месяцев

Сообщений: 2

Russia

post 02-Фев-2017 00:46 (спустя 5 лет 8 месяцев)

[Цитировать] 

Вот бы возобновил кто...
[Профиль]  [ЛС] 
Показать сообщения:    
Ответить на тему

Текущее время: 14-Дек 12:38

Часовой пояс: GMT + 4



Вы не можете начинать темы
Вы не можете отвечать на сообщения
Вы не можете редактировать свои сообщения
Вы не можете удалять свои сообщения
Вы не можете голосовать в опросах
Вы не можете прикреплять файлы к сообщениям
Вы не можете скачивать файлы