Loading...
Error

(Церковные хоры.) Мужской Хор "Валаам". "Вперед, за братьев!". Русские солдатские и исторические песни времен войны за освобождение Болгарии (1877-1878 гг). - 2008, APE (image + .cue), lossless

Ответить на тему
Статистика раздачи
   
 
Автор Сообщение

СЕРГУЛЕТ

Стаж: 8 лет 9 месяцев

Сообщений: 2640

Откуда: LA ROMANA

Dominicanrep

post 11-Сен-2009 21:33

[Цитировать] 

Мужской Хор "Валаам". "Вперед, за братьев!". Русские солдатские и исторические песни времен войны за освобождение Болгарии (1877-1878 гг).

pic
Страна: Россия. "IMLab".
Жанр: Церковные хоры.
Год выпуска: 2008
Формат: APE (image + .cue)
Битрейт аудио: lossless
Продолжительность: 01:09:20.
Обложки
picpic
EAC log
Exact Audio Copy V0.99 prebeta 5 from 4. May 2009

Отчёт EAC об извлечении, выполненном 11. сентября 2009, 21:12

Мужской Хор Института Певческой Культуры 'Валаам' / Вперёд, за братьев

Дисковод: ASUS BC-1205PT Adapter: 1 ID: 0

Режим чтения : Достоверность
Использование точного потока : Да
Отключение кэша аудио : Да
Использование указателей C2 : Нет

Коррекция смещения при чтении : 667
Способность читать области Lead-in и Lead-out : Нет
Заполнение пропущенных сэмплов тишиной : Да
Удаление блоков с тишиной в начале и конце : Нет
При вычислениях CRC использовались нулевые сэмплы : Да
Интерфейс : Встроенный Win32-интерфейс для Win NT/2000

Выходной формат : Внутренние WAV-операции
Формат сэмплов : 44.100 Гц; 16 бит; стерео

TOC извлечённого CD

Трек | Старт | Длительность | Начальный сектор | Конечный сектор
---------------------------------------------------------------------
1 | 0:00.00 | 2:55.23 | 0 | 13147
2 | 2:55.23 | 3:55.59 | 13148 | 30831
3 | 6:51.07 | 1:10.74 | 30832 | 36155
4 | 8:02.06 | 2:50.37 | 36156 | 48942
5 | 10:52.43 | 3:17.11 | 48943 | 63728
6 | 14:09.54 | 2:45.52 | 63729 | 76155
7 | 16:55.31 | 2:12.40 | 76156 | 86095
8 | 19:07.71 | 1:47.26 | 86096 | 94146
9 | 20:55.22 | 2:02.14 | 94147 | 103310
10 | 22:57.36 | 2:16.48 | 103311 | 113558
11 | 25:14.09 | 2:15.32 | 113559 | 123715
12 | 27:29.41 | 2:16.07 | 123716 | 133922
13 | 29:45.48 | 3:37.55 | 133923 | 150252
14 | 33:23.28 | 5:57.58 | 150253 | 177085
15 | 39:21.11 | 2:48.67 | 177086 | 189752
16 | 42:10.03 | 2:19.19 | 189753 | 200196
17 | 44:29.22 | 1:45.19 | 200197 | 208090
18 | 46:14.41 | 3:39.43 | 208091 | 224558
19 | 49:54.09 | 1:47.40 | 224559 | 232623
20 | 51:41.49 | 0:41.37 | 232624 | 235735
21 | 52:23.11 | 6:28.29 | 235736 | 264864
22 | 58:51.40 | 1:24.36 | 264865 | 271200
23 | 60:16.01 | 1:23.41 | 271201 | 277466
24 | 61:39.42 | 6:11.12 | 277467 | 305303
25 | 67:50.54 | 1:28.05 | 305304 | 311908

Характеристики диапазона извлечения и сообщения об ошибках

Выбранный диапазон

Имя файла C:\Users\Сергулет\Documents\Мужской Хор Института Певческой Культуры 'Валаам' - Вперёд, за братьев.wav

Пиковый уровень 100.0 %
Качество диапазона 99.9 %
CRC копии DA22DFF8
Копирование... OK

Ошибок не произошло

Конец отчёта
Download

Войдите на сайт, чтобы увидеть полную информацию.

Как скачивать  ·   Правила трекера

[Профиль]  [ЛС] 

bringer

Стаж: 8 лет 1 месяц

Сообщений: 1

Russia

post 07-Фев-2010 16:00 (спустя 4 месяца 25 дней)

[Цитировать] 

СЕРГУЛЕТ
Низкий поклон автору!!!
Спасибо что сам следишь за их творчеством и про братьев на забываешь. Smile
[Профиль]  [ЛС] 

Музыфил

Стаж: 11 месяцев

Сообщений: 1

Russia

post 04-Дек-2016 15:00 (спустя 6 лет 9 месяцев)

[Цитировать] 

Перезалейте, пожалуйста.
[Профиль]  [ЛС] 
Показать сообщения:    
Ответить на тему

Текущее время: 19-Ноя 16:03

Часовой пояс: GMT + 4



Вы не можете начинать темы
Вы не можете отвечать на сообщения
Вы не можете редактировать свои сообщения
Вы не можете удалять свои сообщения
Вы не можете голосовать в опросах
Вы не можете прикреплять файлы к сообщениям
Вы не можете скачивать файлы