Loading...
Error

"ХРИСТОС НА ЗЕМЛИ — ВОЗНОСИТЕСЯ!". Рождественское Патриаршее Богослужение. 06-07.01.2001. [2002 г., Документальные фильмы (DVD)., DVD9+APE (image + .cue),lossless]

Ответить на тему
Статистика раздачи
Качают: [ 1 ]
Скачали: [ 5 ]
   
 
Автор Сообщение

СЕРГУЛЕТ

Стаж: 7 лет 9 месяцев

Сообщений: 2639

Откуда: LA ROMANA

Dominicanrep

post 06-Сен-2009 19:20

[Цитировать] 

"ХРИСТОС НА ЗЕМЛИ — ВОЗНОСИТЕСЯ!". Рождественское Патриаршее Богослужение. 06-07.01.2001.

pic
Год выпуска: 2002
Жанр: Документальные фильмы (DVD).
Продолжительность: 03:21:30(DVD)+02:22:10(СD).

Описание: DVD диск
1. Праздничный трезвон
2. Начало Всенощного бдения
3. С нами Бог…
4. Тропарь Рождества Христова
5. Кондак Рождества Христова
6. Стихира Рождества Христова: Ликуют Ангели…
7. Ныне отпущаеши…
8. Трисвятое
9. Полиелей
10. Величание Рождеству Христову
11. Антифоны. Прокимен. Чтение Евангелия
12. Стихира по Евангелии
13. Ирмосы Рождественского канона
14. Стихиры на хвалитех
15. Великое славословие
16. Тропарь Рождества Христова
17. Просительная ектения
18. Отпуст Всенощного бдения
19. Начало Божественной Литургии
20. Великая ектения
21. Антифон 1-й
22. Малая ектения
23. Антифон 2-й
24. Единородный Сыне…
25. Малая ектения
26. Антифон 3-й
27. Малый вход
28. Ис полла эти Деспота…
29. Тропарь праздника Рождества Христова
30. Господи, спаси благочестивыя…
31. Великая похвала
32. Кондак праздника Рождества Христова
33. Елицы во Христа крестистеся…
34. Прокимен праздника. Чтение апостола. Аллилуиа
35. Чтение Евангелия
36. Сугубая ектения
37. Ектения об оглашенных
38. Херувимская песнь
39. Великий вход
40. Просительная ектения: Исполним молитву…
41. Символ веры
42. Евхаристический канон
43. Задостойник праздника Рождества Христова
44. Просительная ектения: Вся святыя помянувше…
45. Молитва Господня: Отче наш…
46. Запричастный концерт
47. Патриаршее Рождественское послание
48. Ектения: Прости, приимше…
49. Заамвонная молитва
50. Отпуст Божественной Литургии
51. Многолетие
52. Слово Святейшего Патриарха Московского и всея Руси Алексия II

CD диск 1
1. Благовест
2. Начало Великого повечерия. Царю Небесный…
3. С нами Бог…
4. Тропарь и кондак Рождества Христова
5. Стихира Ликуют ангели…
6. Ныне отпущаеши…
Трисвятое. Тропарь Рождества Христова
7. Утреня. Полиелей
Хвалите имя Господне…
8. Величание
9. От юности моея… Антифон (глас 4)
10. Прокимен и опев Евангелия
11. Чтение Евангелия
12. Стихира по Евангелии. Слава в вышних Богу…
13. Христос раждается…
Ирмосы канона Рождества Христова
14. Стихиры на Хвалитех
15. Великое славословие
Тропарь Рождества Христова
Просительная ектения
16. Отпуст
Божественная литургия
17. Великая ектения
18. Антифоны Рождества Христова
Малая ектения
19. Единородный Сыне…

CD диск 2
1. Тропарь Рождества Христова
2. Ис полла эти, Деспота…
3. Елицы во Христа крестистеся…
4. Прокимен. Чтение Апостола
5. Опев Евангелия
6. Чтение Евангелия
7. Сугубая ектения
8. Херувимская песнь
9. Милость мира…
10. Тебе поем…
11. Задостойник Рождества Христова
12. И всех и вся…
13. Слава в вышних Богу…
14. Слово Святейшего Патриарха Алексия II
15. Многолетие

Дополнительная информация: Всенощное бдение и Божественная Литургия, совершенные Святейшим Патриархом Московским и всея Руси Алексием II в Храме Христа Спасителя 06-07. 01.2001 года.
Хор Храма Христа Спасителя. Регент Николай Георгиевский.

Параметры CD:
Формат: APE (image + .cue)
Битрейт аудио: lossless

Качество: DVD9
Формат: DVD Video
Видео кодек: MPEG2
Аудио кодек: AC3
Видео: PAL 4:3 (720x576) VBR
Аудио: Audio #1: AC3, 3/2+LFE ch, 448Kbps, Delay 0 mSec, Audio #2: AC3, 2/0 ch, 224Kbps, Delay 0 mSec
Звук:Dolby Digital 5.1, Dolby Digital 2.0
Анаморфированные скриншоты
picpicpicpicpic
EAC log
Exact Audio Copy V0.99 prebeta 5 from 4. May 2009

Отчёт EAC об извлечении, выполненном 6. сентября 2009, 18:55

Патриарх Московский и всея Руси Алексий II / Рождественское патриаршее огослужение

Дисковод: ASUS BC-1205PT Adapter: 1 ID: 0

Режим чтения : Достоверность
Использование точного потока : Да
Отключение кэша аудио : Да
Использование указателей C2 : Нет

Коррекция смещения при чтении : 667
Способность читать области Lead-in и Lead-out : Нет
Заполнение пропущенных сэмплов тишиной : Да
Удаление блоков с тишиной в начале и конце : Нет
При вычислениях CRC использовались нулевые сэмплы : Да
Интерфейс : Встроенный Win32-интерфейс для Win NT/2000

Выходной формат : Внутренние WAV-операции
Формат сэмплов : 44.100 Гц; 16 бит; стерео

TOC извлечённого CD

Трек | Старт | Длительность | Начальный сектор | Конечный сектор
---------------------------------------------------------------------
1 | 0:00.00 | 4:09.55 | 0 | 18729
2 | 4:09.55 | 1:31.22 | 18730 | 25576
3 | 5:41.02 | 3:25.13 | 25577 | 40964
4 | 9:06.15 | 2:46.56 | 40965 | 53470
5 | 11:52.71 | 2:16.25 | 53471 | 63695
6 | 14:09.21 | 4:01.23 | 63696 | 81793
7 | 18:10.44 | 2:41.07 | 81794 | 93875
8 | 20:51.51 | 1:17.32 | 93876 | 99682
9 | 22:09.08 | 1:33.22 | 99683 | 106679
10 | 23:42.30 | 3:15.49 | 106680 | 121353
11 | 26:58.04 | 2:24.15 | 121354 | 132168
12 | 29:22.19 | 2:48.33 | 132169 | 144801
13 | 32:10.52 | 9:37.30 | 144802 | 188106
14 | 41:48.07 | 1:55.55 | 188107 | 196786
15 | 43:43.62 | 11:29.13 | 196787 | 248474
16 | 55:13.00 | 3:58.10 | 248475 | 266334
17 | 59:11.10 | 5:49.10 | 266335 | 292519
18 | 65:00.20 | 3:13.09 | 292520 | 307003
19 | 68:13.29 | 2:43.14 | 307004 | 319242

Характеристики диапазона извлечения и сообщения об ошибках

Выбранный диапазон

Имя файла C:\Users\Сергулет\Documents\Патриарх Московский и всея Руси Алексий II - Рождественское патриаршее огослужение.wav

Пиковый уровень 95.9 %
Качество диапазона 100.0 %
CRC копии 804F5BC7
Копирование... OK

Ошибок не произошло

Конец отчёта
CD2.
Exact Audio Copy V0.99 prebeta 5 from 4. May 2009

Отчёт EAC об извлечении, выполненном 6. сентября 2009, 19:07

Патриарх Московский и всея Руси Алексий II / Рождественское патриаршее богослужение

Дисковод: ASUS BC-1205PT Adapter: 1 ID: 0

Режим чтения : Достоверность
Использование точного потока : Да
Отключение кэша аудио : Да
Использование указателей C2 : Нет

Коррекция смещения при чтении : 667
Способность читать области Lead-in и Lead-out : Нет
Заполнение пропущенных сэмплов тишиной : Да
Удаление блоков с тишиной в начале и конце : Нет
При вычислениях CRC использовались нулевые сэмплы : Да
Интерфейс : Встроенный Win32-интерфейс для Win NT/2000

Выходной формат : Внутренние WAV-операции
Формат сэмплов : 44.100 Гц; 16 бит; стерео

TOC извлечённого CD

Трек | Старт | Длительность | Начальный сектор | Конечный сектор
---------------------------------------------------------------------
1 | 0:00.00 | 4:28.35 | 0 | 20134
2 | 4:28.35 | 3:29.37 | 20135 | 35846
3 | 7:57.72 | 2:55.65 | 35847 | 49036
4 | 10:53.62 | 5:25.70 | 49037 | 73481
5 | 16:19.57 | 1:39.11 | 73482 | 80917
6 | 17:58.68 | 3:46.00 | 80918 | 97867
7 | 21:44.68 | 4:20.67 | 97868 | 117434
8 | 26:05.60 | 10:35.10 | 117435 | 165069
9 | 36:40.70 | 9:11.48 | 165070 | 206442
10 | 45:52.43 | 4:15.26 | 206443 | 225593
11 | 50:07.69 | 3:08.29 | 225594 | 239722
12 | 53:16.23 | 4:41.35 | 239723 | 260832
13 | 57:57.58 | 5:24.26 | 260833 | 285158
14 | 63:22.09 | 4:38.23 | 285159 | 306031
15 | 68:00.32 | 3:10.37 | 306032 | 320318

Характеристики диапазона извлечения и сообщения об ошибках

Выбранный диапазон

Имя файла C:\Users\Сергулет\Documents\Патриарх Московский и всея Руси Алексий II - Рождественское патриаршее богослужение.wav

Пиковый уровень 99.7 %
Качество диапазона 100.0 %
CRC копии 0F679CF0
Копирование... OK

Ошибок не произошло

Конец отчёта
Download

Войдите для скачивания торрент-файла

Как скачивать  ·   Правила трекера



Последний раз редактировалось: СЕРГУЛЕТ (2010-08-02 23:17), всего редактировалось 1 раз
[Профиль]  [ЛС] 

Kozelchanka

Стаж: 7 лет 10 месяцев

Сообщений: 195

Russia

post 26-Сен-2009 13:41 (спустя 19 дней)

[Цитировать] 

Спаси Господи, отличная раздача! Одна только постоянная просьба: выложить полностью обложку.

_________________
За свои слова я часто раскаивался, а за молчание — никогда. (прп. Арсений Великий)
[Профиль]  [ЛС] 

boric

Стаж: 7 лет 2 месяца

Сообщений: 28

post 09-Янв-2011 01:33 (спустя 1 год 3 месяца)

[Цитировать] 

хочу качнуть !
[Профиль]  [ЛС] 

boric

Стаж: 7 лет 2 месяца

Сообщений: 28

post 15-Янв-2011 22:12 (спустя 6 дней)

[Цитировать] 

дайте скачать!!! 0 полный уже неделю уже все праздники прошли !
[Профиль]  [ЛС] 

СЕРГУЛЕТ

Стаж: 7 лет 9 месяцев

Сообщений: 2639

Откуда: LA ROMANA

Dominicanrep

post 15-Янв-2011 22:29 (спустя 17 минут)

[Цитировать] 

boric
3 сидера на раздаче...
[Профиль]  [ЛС] 

Странник1

Стаж: 7 лет

Сообщений: 2308

Russia

post 09-Мар-2011 22:58 (спустя 1 месяц 25 дней)

[Цитировать] 

Спаси Господи,
[Профиль]  [ЛС] 

КукА

Стаж: 7 лет 7 месяцев

Сообщений: 526

Откуда: Одесса

Ukraine

post 23-Ноя-2016 01:52 (спустя 5 лет 8 месяцев)

[Цитировать] 

Благослови Вас Господи!
[Профиль]  [ЛС] 

---!!!

Стаж: 1 год 4 месяца

Сообщений: 382

Russia

post 26-Ноя-2016 22:16 (спустя 3 дня)

[Цитировать] 

Спасибо
[Профиль]  [ЛС] 
Показать сообщения:    
Ответить на тему

Текущее время: 04-Дек 16:17

Часовой пояс: GMT + 4



Вы не можете начинать темы
Вы не можете отвечать на сообщения
Вы не можете редактировать свои сообщения
Вы не можете удалять свои сообщения
Вы не можете голосовать в опросах
Вы не можете прикреплять файлы к сообщениям
Вы не можете скачивать файлы