Loading...
Error

(духовная музыка) Подборка песен и минусовок для Рождественских утренников - 2015, MP3

Ответить на тему
Статистика раздачи
Качают: [ 3 ]
Скачали: [ 25 ]
   
 
Автор Сообщение

Татьяна хв

Стаж: 5 лет 6 месяцев

Сообщений: 55

post 25-Апр-2015 09:55

[Цитировать] 

Подборка песен и минусовок для Рождественских утренников


pic
Страна: Россия, Украина

Жанр: духовная музыка

Год выпуска: 2015

Формат: MP3

Количество: 96 файлов

Тексты к большинству песен можно найти здесь:
Подборка рождественских песен для утренников (word) - http://pravtor.ru/viewtopic.php?t=14452
Дополнительная информация
Файлы скачаны в разное время с разных сайтов и альбомов. Если к песни имелась минусовка – она тоже есть в раздаче. Колядок в раздаче мало, так как сборники с колядками и щедривками есть на торрентах в достаточном количестве. Из понравившихся могу отметить: «Где звездочка горит», «Во владеньях инея и снега», «Ночь, мороз, сверкают звезды», «Сияют свечи», «Смолкли на улице звуки свирели» и некоторые другие. Как сопроводительная мелодия для игр на утреннике хорошо подходит мелодия из фильма «Три орешка для Золушки». Она создает легкое праздничное настроение.
Трэклист
А вчера с вечера.mp3
Ангел Рождества минус.mp3
Ангел Рождества плюс Надежда Тананко.mp3
Белые снежинки кружатся с утра.mp3
Божьего Младенца славим Рождество.mp3
В зимней колыбели звездной.mp3
В небе морозном снежинки кружатся.mp3
В ночном саду (-) Мария_Лебедева.mp3
В ночном саду (+).mp3
В пещере Вифлиемской.mp3
В рождественскую ночь.mp3
В тихую ночь ангелы.mp3
Взошла звезда ясная (И. Болдышева).mp3
Во владениях инея и снега минус.mp3
Во владениях инея и снега плюс.mp3
Во владеньях инея и снега минус.mp3
Волхвы о звезде песня.mp3
Восковые свечечки минус.mp3
Восковые свечечки плюс.mp3
Восточная звезда.mp3
Где звездочка горит.mp3
Днесь Христос (И. Болдышева).mp3
Елка в Рождество.mp3
Ёлочка.mp3
Елочка на Рождество.mp3
Зажигает вечер праздничные свечи.mp3
К нам идет Рождество.mp3
Кто там в Вифлиеме.mp3
Луч от звезды небесной.mp3
Мы маленькие свечи минус.mp3
Мы маленькие свечи плюс.mp3
На лошадках в санках едем мы зимой.mp3
Небо и земля.mp3
Несем Вам новость.mp3
Новая звезда минус.mp3
Новая звезда плюс.mp3
Ночь мороз сверкают звезды.mp3
Ночь Рождества минус.mp3
Ночь Рождества плюс.mp3
Ночь тиха по тверди зыбкой.mp3
Ночь тиха, ночь свята.mp3
О Вифлеем Вифлеем (И. Болдышева).mp3
О Вифлием Вифлием.mp3
Поглядел в застылое окно (И. Болдышева).mp3
Посмотри пылают звезды над горами.mp3
Різдво.mp3
Рождественская елка.mp3
Рождественская елочка минус.mp3
Рождественская елочка плюс Надежда Тананко.mp3
Рождественская звездочка.mp3
Рождественская ночь.mp3
Рождественская ночь В. Толкунова.mp3
Рождественская ночь на стихи А. Фета.mp3
Рождественская песенка.mp3
Рождественская песня.mp3
Рождественские колокольчики минус.mp3
Рождественский сочельник Надежда Тананко.mp3
Рождество.mp3
Рождество (минус).mp3
Рождество в Тобольске (И. Болдышева).mp3
Рождество наступит скоро (И. Болдышева).mp3
Рождество рядом - Супер книга -.mp3
Рождество рядом - Супер книга +.mp3
Рождество Христово (И. Болдышева).mp3
Рождество Христово ангел прилетел.mp3
Рождество Христово ангел прилетел 2.mp3
С Рождеством.mp3
Свет рождественской звезды Арт студия (плюс).mp3
Свет рождественской звезды минус.mp3
Свет рождественской звезды плюс.mp3
Светлый праздник Рождества.mp3
Свеча Рождества (минус).mp3
Свеча Рождества (плюс).mp3
Сербская Рождественкая песня.mp3
Серебристые снежинки минус.mp3
Серебристые снежинки плюс.mp3
Сияют свечи минус.mp3
Сияют свечи плюс (Опять в глубинах декабря).mp3
Смолкли на улице звуки свирели 1.mp3
Смолкли на улице звуки свирели 2 (И. Болдышева).mp3
Смолкли на улице звуки свирели 3.mp3
Снежинки (И. Болдышева).mp3
Тихая ночь.mp3
Тихо шепчут падая снежинки минус.mp3
Тихо шепчут падая снежинки плюс.mp3
То было в давние года.mp3
Три орешка для Золушки (для проигрыша или танца).mp3
Что так ясно в зту ночь.mp3
Эта ночь святая (1).mp3
Эта ночь святая (2).mp3
Этот праздник в середине зимы минус.mp3
Этот праздник в середине зимы плюс.mp3
Я умом ходила в город Вифлием 1.mp3
Я умом ходила в город Вифлием 2.mp3
Яркая звездочка минус.mp3
Яркая звездочка плюс.mp3
Download

Войдите для скачивания торрент-файла

Как скачивать  ·   Правила трекера



Последний раз редактировалось: Татьяна хв (2016-10-10 14:29), всего редактировалось 1 раз
[Профиль]  [ЛС] 

Татьяна хв

Стаж: 5 лет 6 месяцев

Сообщений: 55

post 25-Апр-2015 10:29 (спустя 34 минуты)

[Цитировать] 

Информация об аудио
General
Complete name : А вчера с вечера.mp3
Format : MPEG Audio
File size : 3.33 MiB
Duration : 1mn 27s
Overall bit rate : 320 Kbps
Track name : Дорожка 19
Track name/Position : 19
Track name/Total : 24
Writing library : LAME3.98r
Audio
Format : MPEG Audio
Format version : Version 1
Format profile : Layer 3
Duration : 1mn 27s
Bit rate mode : Constant
Bit rate : 320 Kbps
Channel(s) : 2 channels
Sampling rate : 44.1 KHz
Resolution : 16 bits
Stream size : 3.33 MiB (100%)
Writing library : LAME3.98r
Encoding settings : -m j -V 4 -q 3 -lowpass 20.5

General
Complete name : Ангел Рождества минус.mp3
Format : MPEG Audio
File size : 7.04 MiB
Duration : 3mn 4s
Overall bit rate : 320 Kbps
Audio
Format : MPEG Audio
Format version : Version 1
Format profile : Layer 3
Duration : 3mn 4s
Bit rate mode : Constant
Bit rate : 320 Kbps
Channel(s) : 2 channels
Sampling rate : 44.1 KHz
Resolution : 16 bits
Stream size : 7.04 MiB (100%)

General
Complete name : Ангел Рождества плюс Надежда Тананко.mp3
Format : MPEG Audio
File size : 7.01 MiB
Duration : 3mn 3s
Overall bit rate : 320 Kbps
Audio
Format : MPEG Audio
Format version : Version 1
Format profile : Layer 3
Duration : 3mn 3s
Bit rate mode : Constant
Bit rate : 320 Kbps
Channel(s) : 2 channels
Sampling rate : 44.1 KHz
Resolution : 16 bits
Stream size : 7.01 MiB (100%)

General
Complete name : Белые снежинки кружатся с утра.mp3
Format : MPEG Audio
File size : 1.18 MiB
Duration : 1mn 17s
Overall bit rate : 128 Kbps
Album : Новогодние
Track name : © WAP.4iK.RU
Track name/Position : 11
Performer : разные
Accompaniment : разные
Genre : Детская музыка
Copyright : © WAP.4iK.RU
Lyrics :
Comment : © WAP.4iK.RU
URL : © WAP.4iK.RU
Audio
Format : MPEG Audio
Format version : Version 1
Format profile : Layer 3
Duration : 1mn 17s
Bit rate mode : Constant
Bit rate : 128 Kbps
Channel(s) : 2 channels
Sampling rate : 44.1 KHz
Resolution : 16 bits
Stream size : 1.18 MiB (100%)

General
Complete name : Божьего Младенца славим Рождество.mp3
Format : MPEG Audio
File size : 4.02 MiB
Duration : 1mn 45s
Overall bit rate : 320 Kbps
Track name : Дорожка 15
Track name/Position : 15
Track name/Total : 24
Writing library : LAME3.98r
Audio
Format : MPEG Audio
Format version : Version 1
Format profile : Layer 3
Duration : 1mn 45s
Bit rate mode : Constant
Bit rate : 320 Kbps
Channel(s) : 2 channels
Sampling rate : 44.1 KHz
Resolution : 16 bits
Stream size : 4.02 MiB (100%)
Writing library : LAME3.98r
Encoding settings : -m j -V 4 -q 3 -lowpass 20.5

General
Complete name : В зимней колыбели звездной.mp3
Format : MPEG Audio
File size : 2.25 MiB
Duration : 2mn 24s
Overall bit rate : 130 Kbps
Album : Серебристые снежинк8
Track name : Рождество
Track name/Position : 9
Performer : Шоу-группа "Улыбка"
Writing library : LAME3.98r
Audio
Format : MPEG Audio
Format version : Version 1
Format profile : Layer 3
Duration : 2mn 24s
Bit rate mode : Variable
Bit rate : 130 Kbps
Minimum bit rate : 32.0 Kbps
Channel(s) : 2 channels
Sampling rate : 44.1 KHz
Resolution : 16 bits
Stream size : 2.24 MiB (100%)
Writing library : LAME3.98r
Encoding settings : -m j -V 5 -q 5 -lowpass 16.5 --vbr-new -b 32

General
Complete name : В небе морозном снежинки кружатся.mp3
Format : MPEG Audio
File size : 2.33 MiB
Duration : 2mn 32s
Overall bit rate : 128 Kbps
Album : Неизвестный диск (06.01.2010 17:12:29)
Track name : Дорожка 4
Track name/Position : 4
Genre : Other
MCDI : Yes
Audio
Format : MPEG Audio
Format version : Version 1
Format profile : Layer 3
Duration : 2mn 32s
Bit rate mode : Constant
Bit rate : 128 Kbps
Channel(s) : 2 channels
Sampling rate : 44.1 KHz
Resolution : 16 bits
Stream size : 2.33 MiB (100%)

General
Complete name : В ночном саду (-) Мария_Лебедева.mp3
Format : MPEG Audio
File size : 5.54 MiB
Duration : 2mn 25s
Overall bit rate : 320 Kbps
Track name : В ночном саду [x-minus.org]
Performer : Мария Лебедева
Audio
Format : MPEG Audio
Format version : Version 1
Format profile : Layer 3
Duration : 2mn 25s
Bit rate mode : Constant
Bit rate : 320 Kbps
Channel(s) : 2 channels
Sampling rate : 44.1 KHz
Resolution : 16 bits
Stream size : 5.53 MiB (100%)

General
Complete name : В ночном саду (+).mp3
Format : MPEG Audio
File size : 4.70 MiB
Duration : 3mn 25s
Overall bit rate : 192 Kbps
Genre : Other
Audio
Format : MPEG Audio
Format version : Version 1
Format profile : Layer 3
Duration : 3mn 25s
Bit rate mode : Constant
Bit rate : 192 Kbps
Channel(s) : 2 channels
Sampling rate : 44.1 KHz
Resolution : 16 bits
Stream size : 4.70 MiB (100%)

General
Complete name : В пещере Вифлиемской.mp3
Format : MPEG Audio
File size : 3.24 MiB
Duration : 1mn 24s
Overall bit rate : 320 Kbps
Track name : Дорожка 16
Track name/Position : 16
Track name/Total : 24
Writing library : LAME3.98r
Audio
Format : MPEG Audio
Format version : Version 1
Format profile : Layer 3
Duration : 1mn 24s
Bit rate mode : Constant
Bit rate : 320 Kbps
Channel(s) : 2 channels
Sampling rate : 44.1 KHz
Resolution : 16 bits
Stream size : 3.24 MiB (100%)
Writing library : LAME3.98r
Encoding settings : -m j -V 4 -q 3 -lowpass 20.5

General
Complete name : В рождественскую ночь.mp3
Format : MPEG Audio
File size : 6.32 MiB
Duration : 2mn 45s
Overall bit rate : 320 Kbps
Album : Дорога до Бога
Track name : 16. В Різдвяну ніч
Track name/Position : 14
Performer : матушка Світлана Бущак
Genre : Православное пение
Recorded date : 2001
Cover : Yes
Cover MIME : image/jpeg
Comment : http://www.bogoglasnik.ru/lo
MCDI : Yes
Audio
Format : MPEG Audio
Format version : Version 1
Format profile : Layer 3
Duration : 2mn 45s
Bit rate mode : Constant
Bit rate : 320 Kbps
Channel(s) : 2 channels
Sampling rate : 44.1 KHz
Resolution : 16 bits
Stream size : 6.31 MiB (100%)

General
Complete name : В тихую ночь ангелы.mp3
Format : MPEG Audio
File size : 2.52 MiB
Album : В тихую ночь. Колыбельные песни для детей
Track name : В тихую ночь
Track name/Position : 01
Track name/Total : 15
Performer : И.Литвак
Genre : Для детей
Recorded date : 2000
Writing library : LAME3.92
Comment : 01.01.07
Audio
Format : MPEG Audio
Format version : Version 1
Format profile : Layer 3
Bit rate mode : Variable
Channel(s) : 2 channels
Sampling rate : 44.1 KHz
Resolution : 16 bits
Stream size : 2.51 MiB (100%)
Writing library : LAME3.92

General
Complete name : Взошла звезда ясная (И. Болдышева).mp3
Format : MPEG Audio
File size : 4.41 MiB
Duration : 2mn 24s
Overall bit rate : 256 Kbps
Writing library : FairStars Audio Converter / LAME3.93
Audio
Format : MPEG Audio
Format version : Version 1
Format profile : Layer 3
Duration : 2mn 24s
Bit rate mode : Constant
Bit rate : 256 Kbps
Channel(s) : 2 channels
Sampling rate : 44.1 KHz
Resolution : 16 bits
Stream size : 4.41 MiB (100%)
Writing library : LAME3.93

General
Complete name : Во владениях инея и снега минус.mp3
Format : MPEG Audio
File size : 2.72 MiB
Duration : 2mn 58s
Overall bit rate : 128 Kbps
Genre : Other
Writing library : LAME3.95
Audio
Format : MPEG Audio
Format version : Version 1
Format profile : Layer 3
Duration : 2mn 58s
Bit rate mode : Constant
Bit rate : 128 Kbps
Channel(s) : 2 channels
Sampling rate : 44.1 KHz
Resolution : 16 bits
Stream size : 2.72 MiB (100%)
Writing library : LAME3.95

General
Complete name : Во владениях инея и снега плюс.mp3
Format : MPEG Audio
File size : 3.24 MiB
Duration : 3mn 32s
Overall bit rate : 128 Kbps
Genre : Blues
Audio
Format : MPEG Audio
Format version : Version 1
Format profile : Layer 3
Duration : 3mn 32s
Bit rate mode : Constant
Bit rate : 128 Kbps
Channel(s) : 2 channels
Sampling rate : 44.1 KHz
Resolution : 16 bits
Stream size : 3.24 MiB (100%)

General
Complete name : Во владеньях инея и снега минус.mp3
Format : MPEG Audio
File size : 3.53 MiB
Duration : 3mn 51s
Overall bit rate : 128 Kbps
Writing library : LAME3.99r
Audio
Format : MPEG Audio
Format version : Version 1
Format profile : Layer 3
Duration : 3mn 51s
Bit rate mode : Constant
Bit rate : 128 Kbps
Channel(s) : 2 channels
Sampling rate : 44.1 KHz
Resolution : 16 bits
Stream size : 3.53 MiB (100%)
Writing library : LAME3.99r
Encoding settings : -m s -V 4 -q 3 -lowpass 17 -b 128

General
Complete name : Волхвы о звезде песня.mp3
Format : MPEG Audio
File size : 3.08 MiB
Duration : 2mn 14s
Overall bit rate : 192 Kbps
Album : Zvezda Vifleema
Track name : Zvezda
Track name/Position : 2
Performer : Detskaya rozhdestvenskaya muzykalnaya inscenirovka
Genre : Other
Writing library : LAME3.90.
MCDI : Yes
Audio
Format : MPEG Audio
Format version : Version 1
Format profile : Layer 3
Duration : 2mn 14s
Bit rate mode : Variable
Bit rate : 192 Kbps
Minimum bit rate : 192 Kbps
Channel(s) : 2 channels
Sampling rate : 48.0 KHz
Resolution : 16 bits
Stream size : 3.07 MiB (100%)
Writing library : LAME3.90.
Encoding settings : -m j -V 3 -q 0 -lowpass 19.2 --vbr-old -b 192

General
Complete name : Восковые свечечки минус.mp3
Format : MPEG Audio
File size : 6.32 MiB
Duration : 2mn 45s
Overall bit rate : 320 Kbps
Album : Минусовки
Track name : Восковые свечечки
Performer : Детские Песни
Writing library : LAME3.97.3ЄЄЄЄЄЄЄЄЄЄ
Comment : http://b-track.ru
Audio
Format : MPEG Audio
Format version : Version 1
Format profile : Layer 3
Duration : 2mn 45s
Bit rate mode : Constant
Bit rate : 320 Kbps
Channel(s) : 2 channels
Sampling rate : 44.1 KHz
Resolution : 16 bits
Stream size : 6.30 MiB (100%)
Writing library : LAME3.97.3ЄЄЄЄЄЄЄЄЄЄ

General
Complete name : Восковые свечечки плюс.mp3
Format : MPEG Audio
File size : 1.82 MiB
Duration : 2mn 39s
Overall bit rate : 96.0 Kbps
Album : Album
Track name : The Title
Performer : The Author
Recorded date : 2935
Comment : Comment
Audio
Format : MPEG Audio
Format version : Version 1
Format profile : Layer 3
Duration : 2mn 39s
Bit rate mode : Constant
Bit rate : 96.0 Kbps
Channel(s) : 2 channels
Sampling rate : 44.1 KHz
Resolution : 16 bits
Stream size : 1.82 MiB (100%)

General
Complete name : Восточная звезда.mp3
Format : MPEG Audio
File size : 3.40 MiB
Duration : 1mn 51s
Overall bit rate : 256 Kbps
Album : Берегите любовь
Track name : Восточная звезда
Track name/Position : 09
Performer : Детский хор приюта Покровского монастыря
Genre : Музыка
ContentType : Chorus
Recorded date : 2004
Writing library : Exact Audio Copy (Burst mode) / LAME3.92
Comment : 01.01.07
Audio
Format : MPEG Audio
Format version : Version 1
Format profile : Layer 3
Duration : 1mn 51s
Bit rate mode : Constant
Bit rate : 256 Kbps
Channel(s) : 2 channels
Sampling rate : 44.1 KHz
Resolution : 16 bits
Stream size : 3.40 MiB (100%)
Writing library : LAME3.92
Encoding settings : -m s -V 4 -q 2 -lowpass 20.1

General
Complete name : Где звездочка горит.mp3
Format : MPEG Audio
File size : 2.28 MiB
Duration : 2mn 29s
Overall bit rate : 128 Kbps
Album : Неизвестный альбом (06.01.2012 19:37:05)
Track name : Дорожка 9
Track name/Position : 9
Encoding settings : Lavf52.54.0
Audio
Format : MPEG Audio
Format version : Version 1
Format profile : Layer 3
Duration : 2mn 29s
Bit rate mode : Constant
Bit rate : 128 Kbps
Channel(s) : 2 channels
Sampling rate : 44.1 KHz
Resolution : 16 bits
Stream size : 2.28 MiB (100%)

General
Complete name : Днесь Христос (И. Болдышева).mp3
Format : MPEG Audio
File size : 1.91 MiB
Duration : 1mn 2s
Overall bit rate : 256 Kbps
Writing library : FairStars Audio Converter / LAME3.93
Audio
Format : MPEG Audio
Format version : Version 1
Format profile : Layer 3
Duration : 1mn 2s
Bit rate mode : Constant
Bit rate : 256 Kbps
Channel(s) : 2 channels
Sampling rate : 44.1 KHz
Resolution : 16 bits
Stream size : 1.91 MiB (100%)
Writing library : LAME3.93

General
Complete name : Елка в Рождество.mp3
Format : MPEG Audio
File size : 6.62 MiB
Duration : 2mn 53s
Overall bit rate : 320 Kbps
Track name : Елка в Рождество
Performer : Шоу-группа "Улыбка"
Composer : Варламов Андрей
Lyricist : Панина Раиса
Genre : Dance
Comment : студия "Улыбка"
Audio
Format : MPEG Audio
Format version : Version 1
Format profile : Layer 3
Duration : 2mn 53s
Bit rate mode : Constant
Bit rate : 320 Kbps
Channel(s) : 2 channels
Sampling rate : 44.1 KHz
Resolution : 16 bits
Stream size : 6.61 MiB (100%)

General
Complete name : Елочка на Рождество.mp3
Format : MPEG Audio
File size : 1.30 MiB
Duration : 1mn 24s
Overall bit rate : 128 Kbps
Encoding settings : Lavf52.54.0
Audio
Format : MPEG Audio
Format version : Version 1
Format profile : Layer 3
Duration : 1mn 24s
Bit rate mode : Constant
Bit rate : 128 Kbps
Channel(s) : 2 channels
Sampling rate : 44.1 KHz
Resolution : 16 bits
Stream size : 1.30 MiB (100%)

General
Complete name : Ёлочка.mp3
Format : MPEG Audio
File size : 2.55 MiB
Duration : 1mn 51s
Overall bit rate : 192 Kbps
Album : Рождественские Песнопения
Track name : Ёлочка
Track name/Position : 11
Performer : Иулия Колосова, Светлана Верещак, Ольга Забродина
Genre : Песнопения
Recorded date : 2001
Comment : Ивановская обл. Юрьевецкий р-он, с. Никола-Елнать, храм Воскресения Христова.
Audio
Format : MPEG Audio
Format version : Version 1
Format profile : Layer 3
Duration : 1mn 51s
Bit rate mode : Constant
Bit rate : 192 Kbps
Channel(s) : 2 channels
Sampling rate : 44.1 KHz
Resolution : 16 bits
Stream size : 2.55 MiB (100%)

General
Complete name : Зажигает вечер праздничные свечи.mp3
Format : MPEG Audio
File size : 6.79 MiB
Duration : 3mn 42s
Overall bit rate : 256 Kbps
Audio
Format : MPEG Audio
Format version : Version 1
Format profile : Layer 3
Duration : 3mn 42s
Bit rate mode : Constant
Bit rate : 256 Kbps
Channel(s) : 2 channels
Sampling rate : 44.1 KHz
Resolution : 16 bits
Replay gain : -6.28 dB
Replay gain peak : 1.203377
Stream size : 6.79 MiB (100%)
MP3Gain, Min/Max : 135,185
MP3Gain, Undo : -001,-001,N

General
Complete name : К нам идет Рождество.mp3
Format : MPEG Audio
File size : 7.56 MiB
Duration : 4mn 7s
Overall bit rate : 256 Kbps
Track name : К нам идет Рождество
Performer : В. Дашевская
Comment : Слова Л. Титовой, А. Староторжского / Музыка С. Мельникова
Audio
Format : MPEG Audio
Format version : Version 1
Format profile : Layer 3
Duration : 4mn 7s
Bit rate mode : Constant
Bit rate : 256 Kbps
Channel(s) : 2 channels
Sampling rate : 44.1 KHz
Resolution : 16 bits
Stream size : 7.56 MiB (100%)

General
Complete name : Кто там в Вифлиеме.mp3
Format : MPEG Audio
File size : 5.39 MiB
Duration : 2mn 21s
Overall bit rate : 320 Kbps
Track name : Дорожка 17
Track name/Position : 17
Track name/Total : 24
Writing library : LAME3.98r
Audio
Format : MPEG Audio
Format version : Version 1
Format profile : Layer 3
Duration : 2mn 21s
Bit rate mode : Constant
Bit rate : 320 Kbps
Channel(s) : 2 channels
Sampling rate : 44.1 KHz
Resolution : 16 bits
Stream size : 5.39 MiB (100%)
Writing library : LAME3.98r
Encoding settings : -m j -V 4 -q 3 -lowpass 20.5

General
Complete name : Луч от звезды небесной.mp3
Format : MPEG Audio
File size : 989 KiB
Duration : 1mn 3s
Overall bit rate : 128 Kbps
Track name : 2
Genre : Pop
Audio
Format : MPEG Audio
Format version : Version 1
Format profile : Layer 3
Duration : 1mn 3s
Bit rate mode : Constant
Bit rate : 128 Kbps
Channel(s) : 2 channels
Sampling rate : 44.1 KHz
Resolution : 16 bits
Stream size : 989 KiB (100%)

General
Complete name : Мы маленькие свечи минус.mp3
Format : MPEG Audio
File size : 1.66 MiB
Duration : 1mn 48s
Overall bit rate : 128 Kbps
Album : Неизвестный альбом
Track name : Дорожка 7
Track name/Position : 7
Performer : Неизвестный исполнитель
Genre : Неизвестный жанр
Audio
Format : MPEG Audio
Format version : Version 1
Format profile : Layer 3
Duration : 1mn 48s
Bit rate mode : Constant
Bit rate : 128 Kbps
Channel(s) : 2 channels
Sampling rate : 44.1 KHz
Resolution : 16 bits
Stream size : 1.66 MiB (100%)

General
Complete name : Мы маленькие свечи плюс.mp3
Format : MPEG Audio
File size : 1.45 MiB
Duration : 2mn 6s
Overall bit rate : 96.0 Kbps
Audio
Format : MPEG Audio
Format version : Version 1
Format profile : Layer 3
Duration : 2mn 6s
Bit rate mode : Constant
Bit rate : 96.0 Kbps
Channel(s) : 2 channels
Sampling rate : 44.1 KHz
Resolution : 16 bits
Stream size : 1.45 MiB (100%)

General
Complete name : На лошадках в санках едем мы зимой.mp3
Format : MPEG Audio
File size : 1.82 MiB
Duration : 1mn 35s
Overall bit rate : 160 Kbps
Album : title
Track name : Track 08
Track name/Position : 8
Performer : artist
Genre : genre
Media Type : DIG
URL : http://kovcheg06.podfm.ru/deti/252/
Audio
Format : MPEG Audio
Format version : Version 1
Format profile : Layer 3
Duration : 1mn 35s
Bit rate mode : Constant
Bit rate : 160 Kbps
Channel(s) : 2 channels
Sampling rate : 44.1 KHz
Resolution : 16 bits
Stream size : 1.82 MiB (100%)

General
Complete name : Небо и земля.mp3
Format : MPEG Audio
File size : 709 KiB
Duration : 1mn 0s
Overall bit rate : 96.0 Kbps
Audio
Format : MPEG Audio
Format version : Version 1
Format profile : Layer 3
Duration : 1mn 0s
Bit rate mode : Constant
Bit rate : 96.0 Kbps
Channel(s) : 2 channels
Sampling rate : 44.1 KHz
Resolution : 16 bits
Stream size : 709 KiB (100%)

General
Complete name : Несем Вам новость.mp3
Format : MPEG Audio
File size : 1.45 MiB
Duration : 1mn 3s
Overall bit rate : 192 Kbps
Album : Рождественские Песнопения
Track name : Несем Вам новость
Track name/Position : 18
Performer : Иулия Колосова, Светлана Верещак, Ольга Забродина
Genre : Песнопения
Recorded date : 2001
Comment : Ивановская обл. Юрьевецкий р-он, с. Никола-Елнать, храм Воскресения Христова.
Audio
Format : MPEG Audio
Format version : Version 1
Format profile : Layer 3
Duration : 1mn 3s
Bit rate mode : Constant
Bit rate : 192 Kbps
Channel(s) : 2 channels
Sampling rate : 44.1 KHz
Resolution : 16 bits
Stream size : 1.45 MiB (100%)

General
Complete name : Новая звезда минус.mp3
Format : MPEG Audio
File size : 3.36 MiB
Duration : 2mn 55s
Overall bit rate : 160 Kbps
Album : Новогодний пейзаж (7-9 лет) [music-fantasy.ru]
Track name : 22. Новая звезда (минус)
Performer : Юрий Верижников
Recorded date : 2008
Writing library : LAME3.98r
Comment : music-fantasy.ru
Audio
Format : MPEG Audio
Format version : Version 1
Format profile : Layer 3
Duration : 2mn 55s
Bit rate mode : Variable
Bit rate : 160 Kbps
Minimum bit rate : 32.0 Kbps
Channel(s) : 2 channels
Sampling rate : 44.1 KHz
Resolution : 16 bits
Stream size : 3.36 MiB (100%)
Writing library : LAME3.98r
Encoding settings : -m j -V 5 -q 5 -lowpass 16.5 --vbr-new -b 32

General
Complete name : Новая звезда плюс.mp3
Format : MPEG Audio
File size : 3.35 MiB
Duration : 2mn 58s
Overall bit rate : 158 Kbps
Album : Новогодний пейзаж (7-9 лет) [music-fantasy.ru]
Track name : 10. Новая звезда (плюс)
Performer : Юрий Верижников
Recorded date : 2008
Writing library : LAME3.98r
Comment : music-fantasy.ru
Audio
Format : MPEG Audio
Format version : Version 1
Format profile : Layer 3
Duration : 2mn 58s
Bit rate mode : Variable
Bit rate : 158 Kbps
Minimum bit rate : 32.0 Kbps
Channel(s) : 2 channels
Sampling rate : 44.1 KHz
Resolution : 16 bits
Stream size : 3.35 MiB (100%)
Writing library : LAME3.98r
Encoding settings : -m j -V 5 -q 5 -lowpass 16.5 --vbr-new -b 32

General
Complete name : Ночь мороз сверкают звезды.mp3
Format : MPEG Audio
File size : 2.62 MiB
Duration : 3mn 49s
Overall bit rate : 96.0 Kbps
Album : MneNrawitsjaMoskwa
Track name : NochM
Performer : Pankratow
Genre : Euro-Techno
Recorded date : 2009
Audio
Format : MPEG Audio
Format version : Version 1
Format profile : Layer 3
Duration : 3mn 49s
Bit rate mode : Constant
Bit rate : 96.0 Kbps
Channel(s) : 2 channels
Sampling rate : 44.1 KHz
Resolution : 16 bits
Stream size : 2.62 MiB (100%)

General
Complete name : Ночь Рождества минус.mp3
Format : MPEG Audio
File size : 3.02 MiB
Duration : 3mn 17s
Overall bit rate : 128 Kbps
Writing library : LAME3.90 (alpha)
Audio
Format : MPEG Audio
Format version : Version 1
Format profile : Layer 3
Duration : 3mn 17s
Bit rate mode : Constant
Bit rate : 128 Kbps
Channel(s) : 2 channels
Sampling rate : 48.0 KHz
Resolution : 16 bits
Stream size : 3.02 MiB (100%)
Writing library : LAME3.90 (alpha)

General
Complete name : Ночь Рождества плюс.mp3
Format : MPEG Audio
File size : 6.22 MiB
Duration : 3mn 23s
Overall bit rate : 256 Kbps
Audio
Format : MPEG Audio
Format version : Version 1
Format profile : Layer 3
Duration : 3mn 23s
Bit rate mode : Constant
Bit rate : 256 Kbps
Channel(s) : 2 channels
Sampling rate : 44.1 KHz
Resolution : 16 bits
Stream size : 6.22 MiB (100%)

General
Complete name : Ночь тиха по тверди зыбкой.mp3
Format : MPEG Audio
File size : 4.94 MiB
Duration : 3mn 35s
Overall bit rate : 192 Kbps
Track name : Рождественская ночь
Performer : Аквариум
Genre : Other
Writing library : iTunes 8.0.2.20
Audio
Format : MPEG Audio
Format version : Version 1
Format profile : Layer 3
Duration : 3mn 35s
Bit rate mode : Constant
Bit rate : 192 Kbps
Channel(s) : 2 channels
Sampling rate : 44.1 KHz
Resolution : 16 bits
Stream size : 4.93 MiB (100%)

General
Complete name : Ночь тиха, ночь свята.mp3
Format : MPEG Audio
File size : 3.36 MiB
Duration : 2mn 26s
Overall bit rate : 192 Kbps
Album : Рождественские Песнопения
Track name : Ночь тиха, ночь свята
Track name/Position : 12
Performer : Иулия Колосова, Светлана Верещак, Ольга Забродина
Composer : Грубер
Genre : Песнопения
Recorded date : 2001
Comment : Ивановская обл. Юрьевецкий р-он, с. Никола-Елнать, храм Воскресения Христова.
Audio
Format : MPEG Audio
Format version : Version 1
Format profile : Layer 3
Duration : 2mn 26s
Bit rate mode : Constant
Bit rate : 192 Kbps
Channel(s) : 2 channels
Sampling rate : 44.1 KHz
Resolution : 16 bits
Stream size : 3.36 MiB (100%)

General
Complete name : О Вифлеем Вифлеем (И. Болдышева).mp3
Format : MPEG Audio
File size : 5.22 MiB
Duration : 2mn 50s
Overall bit rate : 256 Kbps
Album : Рождество Христово (Праздничные церковные песнопения) д.2
Track name : ''О, Вифлеем, Вифлеем'' (И. Балдышева)
Track name/Position : 16
Track name/Total : 16
Performer : Хор храма Успения Пресвятой Богородицы
Genre : Музыка
Recorded date : 2000
Encoding settings : Audiograbber 1.81.03, Fraunhofer acm, 256 kBit/s, 44,100 Hz, Stereo, HQ = on
Comment : 01.01.07
CDDB Disc ID : 01.01.07
Audio
Format : MPEG Audio
Format version : Version 1
Format profile : Layer 3
Duration : 2mn 50s
Bit rate mode : Constant
Bit rate : 256 Kbps
Channel(s) : 2 channels
Sampling rate : 44.1 KHz
Resolution : 16 bits
Stream size : 5.22 MiB (100%)

General
Complete name : О Вифлием Вифлием.mp3
Format : MPEG Audio
File size : 2.73 MiB
Duration : 2mn 58s
Overall bit rate : 128 Kbps
Track name : Дорожка 4
Performer : Неизвестный исполнитель
Writing library : LAME3.98.2
Encoding settings : Lavf52.54.0
AlbumTitle : Неизвестный альбом (20_12_2012
TrackNumber : 4
WMFSDKVersion : 12.0.7601.17514
WMFSDKNeeded : 0.0.0.0000
IsVBR : 0
Audio
Format : MPEG Audio
Format version : Version 1
Format profile : Layer 3
Duration : 2mn 58s
Bit rate mode : Constant
Bit rate : 128 Kbps
Channel(s) : 2 channels
Sampling rate : 44.1 KHz
Resolution : 16 bits
Stream size : 2.73 MiB (100%)
Writing library : LAME3.98.2

General
Complete name : Поглядел в застылое окно (И. Болдышева).mp3
Format : MPEG Audio
File size : 2.42 MiB
Duration : 2mn 38s
Overall bit rate : 128 Kbps
Album : Неизвестный диск (05.11.2010 12:43:21)
Track name : Дорожка 2
Track name/Position : 2
Genre : Other
MCDI : Yes
Audio
Format : MPEG Audio
Format version : Version 1
Format profile : Layer 3
Duration : 2mn 38s
Bit rate mode : Constant
Bit rate : 128 Kbps
Channel(s) : 2 channels
Sampling rate : 44.1 KHz
Resolution : 16 bits
Stream size : 2.41 MiB (100%)

General
Complete name : Посмотри пылают звезды над горами.mp3
Format : MPEG Audio
File size : 2.93 MiB
Duration : 3mn 12s
Overall bit rate : 128 Kbps
Audio
Format : MPEG Audio
Format version : Version 1
Format profile : Layer 3
Duration : 3mn 12s
Bit rate mode : Constant
Bit rate : 128 Kbps
Channel(s) : 2 channels
Sampling rate : 44.1 KHz
Resolution : 16 bits
Stream size : 2.93 MiB (100%)

General
Complete name : Різдво.mp3
Format : MPEG Audio
File size : 3.21 MiB
Duration : 3mn 30s
Overall bit rate : 128 Kbps
Album : Різдвяні Колядки
Track name : Різдво
Track name/Position : 13
Performer : Різдвяні Колядки
Genre : Иная праздничная музыка
Recorded date : 2002
GN_ExtData : GNXDWEcxAaW0WG+Eiic0UvPfDQwShYQMy60TX59sXdE02wm/bpdppPr5B2sEA/Xsliu4tTrI6L+bls7AM6tduC3O/66iUAhZaRLYdAdR8iM=
Audio
Format : MPEG Audio
Format version : Version 1
Format profile : Layer 3
Duration : 3mn 30s
Bit rate mode : Constant
Bit rate : 128 Kbps
Channel(s) : 2 channels
Sampling rate : 44.1 KHz
Resolution : 16 bits
Stream size : 3.21 MiB (100%)

General
Complete name : Рождественская елка.mp3
Format : MPEG Audio
File size : 3.26 MiB
Duration : 3mn 32s
Overall bit rate : 129 Kbps
Track name : Рождественская ёлка
Writing library : LAME3.96
MCDI : Yes
Audio
Format : MPEG Audio
Format version : Version 1
Format profile : Layer 3
Duration : 3mn 32s
Bit rate mode : Variable
Bit rate : 128 Kbps
Channel(s) : 2 channels
Sampling rate : 44.1 KHz
Resolution : 16 bits
Stream size : 3.25 MiB (100%)
Writing library : LAME3.96
Encoding settings : -m j -V 4 -q 3 -lowpass 17.5 --abr 128

General
Complete name : Рождественская елочка минус.mp3
Format : MPEG Audio
File size : 5.47 MiB
Duration : 2mn 23s
Overall bit rate : 320 Kbps
Audio
Format : MPEG Audio
Format version : Version 1
Format profile : Layer 3
Duration : 2mn 23s
Bit rate mode : Constant
Bit rate : 320 Kbps
Channel(s) : 2 channels
Sampling rate : 44.1 KHz
Resolution : 16 bits
Stream size : 5.47 MiB (100%)

General
Complete name : Рождественская елочка плюс Надежда Тананко.mp3
Format : MPEG Audio
File size : 5.43 MiB
Duration : 2mn 22s
Overall bit rate : 320 Kbps
Audio
Format : MPEG Audio
Format version : Version 1
Format profile : Layer 3
Duration : 2mn 22s
Bit rate mode : Constant
Bit rate : 320 Kbps
Channel(s) : 2 channels
Sampling rate : 44.1 KHz
Resolution : 16 bits
Stream size : 5.43 MiB (100%)

General
Complete name : Рождественская звездочка.mp3
Format : MPEG Audio
File size : 3.48 MiB
Duration : 3mn 47s
Overall bit rate : 128 Kbps
Track name : Рождественская звёздочка
Writing library : AIMP2 / LAME3.96
Comment : Слова: Людмила Войнова / Музыка: Татьяна Молчан
Audio
Format : MPEG Audio
Format version : Version 1
Format profile : Layer 3
Duration : 3mn 47s
Bit rate mode : Variable
Bit rate : 128 Kbps
Channel(s) : 2 channels
Sampling rate : 44.1 KHz
Resolution : 16 bits
Stream size : 3.47 MiB (100%)
Writing library : LAME3.96
Encoding settings : -m j -V 4 -q 3 -lowpass 17.5 --abr 128

General
Complete name : Рождественская ночь В. Толкунова.mp3
Format : MPEG Audio
File size : 5.01 MiB
Duration : 5mn 28s
Overall bit rate : 128 Kbps
Audio
Format : MPEG Audio
Format version : Version 1
Format profile : Layer 3
Duration : 5mn 28s
Bit rate mode : Constant
Bit rate : 128 Kbps
Channel(s) : 2 channels
Sampling rate : 44.1 KHz
Resolution : 16 bits
Stream size : 5.01 MiB (100%)

General
Complete name : Рождественская ночь на стихи А. Фета.mp3
Format : MPEG Audio
File size : 4.93 MiB
Duration : 3mn 35s
Overall bit rate : 192 Kbps
Track name : Рождественская ночь
Performer : Песня "Аквариума" на стихи А.Фета, написанная к Рождеству 2010 года
Genre : Other
Writing library : iTunes 8.0.2.20
Comment : 0 / 00000925 00000993 00005C77 00006F31 00026D1F 00028B6D 000081F7 0000812B 000207E5 0001BDD0 / 00000000 00000210 000007BB 000000000090FB35 00000000 004ED87E 00000000 00000000 00000000 00000000 00000000 00000000
Audio
Format : MPEG Audio
Format version : Version 1
Format profile : Layer 3
Duration : 3mn 35s
Bit rate mode : Constant
Bit rate : 192 Kbps
Channel(s) : 2 channels
Sampling rate : 44.1 KHz
Resolution : 16 bits
Stream size : 4.93 MiB (100%)

General
Complete name: Рождественская ночь.mp3
Format : MPEG Audio
File size : 3.79 MiB
Duration : 2mn 4s
Overall bit rate : 256 Kbps
Writing library : LAME3.92ЄЄЄЄЄЄЄЄЄЄЄЄ
Audio
Format : MPEG Audio
Format version : Version 1
Format profile : Layer 3
Duration : 2mn 4s
Bit rate mode : Constant
Bit rate : 256 Kbps
Channel(s) : 2 channels
Sampling rate : 44.1 KHz
Resolution : 16 bits
Stream size : 3.79 MiB (100%)
Writing library : LAME3.92ЄЄЄЄЄЄЄЄЄЄЄЄ

General
Complete name : Рождественская песенка.mp3
Format : MPEG Audio
File size : 4.94 MiB
Duration : 2mn 8s
Overall bit rate : 320 Kbps
Album : Зимушка-Зима
Track name : Рождественская песенка
Track name/Position : 02
Performer : Рождественская песенка
Accompaniment : Various
Genre : Детские
Recorded date : 2002
Writing library : LAME3.98r
Cover : Yes
Cover type : Cover (front)
Cover MIME : image/jpg
Comment : Фонотека сайта music-fantasy.ru
Audio
Format : MPEG Audio
Format version : Version 1
Format profile : Layer 3
Duration : 2mn 8s
Bit rate mode : Constant
Bit rate : 320 Kbps
Channel(s) : 2 channels
Sampling rate : 44.1 KHz
Resolution : 16 bits
Stream size : 4.91 MiB (99%)
Writing library : LAME3.98r
Encoding settings : -m j -V 4 -q 5 -lowpass 20.5

General
Complete name : Рождественская песня.mp3
Format : MPEG Audio
File size : 2.48 MiB
Duration : 1mn 49s
Overall bit rate : 191 Kbps
Writing library : LAME3.91
Audio
Format : MPEG Audio
Format version : Version 1
Format profile : Layer 3
Duration : 1mn 49s
Bit rate mode : Variable
Bit rate : 191 Kbps
Nominal bit rate : 192 Kbps
Channel(s) : 2 channels
Sampling rate : 44.1 KHz
Resolution : 16 bits
Stream size : 2.48 MiB (100%)
Writing library : LAME3.91
Encoding settings : -m j -V 4 -q 2 -lowpass 19.5 --abr 192

General
Complete name : Рождественские колокольчики минус.mp3
Format : MPEG Audio
File size : 6.44 MiB
Duration : 3mn 30s
Overall bit rate : 256 Kbps
Track name : Рождественские колокольчики
Audio
Format : MPEG Audio
Format version : Version 1
Format profile : Layer 3
Duration : 3mn 30s
Bit rate mode : Constant
Bit rate : 256 Kbps
Channel(s) : 2 channels
Sampling rate : 44.1 KHz
Resolution : 16 bits
Stream size : 6.44 MiB (100%)

General
Complete name : Рождественский сочельник Надежда Тананко.mp3
Format : MPEG Audio
File size : 7.05 MiB
Duration : 3mn 4s
Overall bit rate : 320 Kbps
Audio
Format : MPEG Audio
Format version : Version 1
Format profile : Layer 3
Duration : 3mn 4s
Bit rate mode : Constant
Bit rate : 320 Kbps
Channel(s) : 2 channels
Sampling rate : 44.1 KHz
Resolution : 16 bits
Stream size : 7.05 MiB (100%)

General
Complete name : Рождество (минус).mp3
Format : MPEG Audio
File size : 8.30 MiB
Duration : 3mn 37s
Overall bit rate : 320 Kbps
Album : http://x-minus.org/
Track name : Рождество (-) x-minus.org
Performer : Детские песни
Audio
Format : MPEG Audio
Format version : Version 1
Format profile : Layer 3
Duration : 3mn 37s
Bit rate mode : Constant
Bit rate : 320 Kbps
Channel(s) : 2 channels
Sampling rate : 44.1 KHz
Resolution : 16 bits
Stream size : 8.30 MiB (100%)

General
Complete name : Рождество в Тобольске (И. Болдышева).mp3
Format : MPEG Audio
File size : 2.79 MiB
Duration : 3mn 2s
Overall bit rate : 128 Kbps
Album : Неизвестный диск (19.02.2010 18:21:14)
Track name : Дорожка 15
Track name/Position : 15
Genre : Other
MCDI : Yes
Audio
Format : MPEG Audio
Format version : Version 1
Format profile : Layer 3
Duration : 3mn 2s
Bit rate mode : Constant
Bit rate : 128 Kbps
Channel(s) : 2 channels
Sampling rate : 44.1 KHz
Resolution : 16 bits
Stream size : 2.78 MiB (100%)

General
Complete name : Рождество наступит скоро (И. Болдышева).mp3
Format : MPEG Audio
File size : 2.16 MiB
Duration : 56s 528ms
Overall bit rate : 320 Kbps
Album : Всё у Бога в радости живет
Track name : Рождество наступит скоро
Track name/Position : 17
Performer : Хор Иоанна Дамаскина
Accompaniment : Хор Иоанна Дамаскина
Genre : Orthodox
Recorded date : 2011
Writing library : LAME3.98r
Audio
Format : MPEG Audio
Format version : Version 1
Format profile : Layer 3
Duration : 56s 528ms
Bit rate mode : Constant
Bit rate : 320 Kbps
Channel(s) : 2 channels
Sampling rate : 44.1 KHz
Resolution : 16 bits
Stream size : 2.16 MiB (100%)
Writing library : LAME3.98r
Encoding settings : -m j -V 4 -q 3 -lowpass 20.5

General
Complete name : Рождество рядом - Супер книга -.mp3
Format : MPEG Audio
File size : 4.44 MiB
Duration : 2mn 25s
Overall bit rate : 256 Kbps
Album : Album
Genre : Vocal
Recorded date : 2012
Audio
Format : MPEG Audio
Format version : Version 1
Format profile : Layer 3
Duration : 2mn 25s
Bit rate mode : Constant
Bit rate : 256 Kbps
Channel(s) : 2 channels
Sampling rate : 44.1 KHz
Resolution : 16 bits
Stream size : 4.44 MiB (100%)

General
Complete name : Рождество рядом - Супер книга +.mp3
Format : MPEG Audio
File size : 2.11 MiB
Duration : 2mn 18s
Overall bit rate : 128 Kbps
Genre : Other
Audio
Format : MPEG Audio
Format version : Version 1
Format profile : Layer 3
Duration : 2mn 18s
Bit rate mode : Constant
Bit rate : 128 Kbps
Channel(s) : 2 channels
Sampling rate : 44.1 KHz
Resolution : 16 bits
Stream size : 2.11 MiB (100%)

General
Complete name : Рождество Христово (И. Болдышева).mp3
Format : MPEG Audio
File size : 3.01 MiB
Duration : 1mn 38s
Overall bit rate : 256 Kbps
Writing library : FairStars Audio Converter / LAME3.93
Audio
Format : MPEG Audio
Format version : Version 1
Format profile : Layer 3
Duration : 1mn 38s
Bit rate mode : Constant
Bit rate : 256 Kbps
Channel(s) : 2 channels
Sampling rate : 44.1 KHz
Resolution : 16 bits
Stream size : 3.01 MiB (100%)
Writing library : LAME3.93

General
Complete name : Рождество Христово ангел прилетел 2.mp3
Format : MPEG Audio
File size : 1.90 MiB
Duration : 1mn 23s
Overall bit rate : 192 Kbps
Album : Рождественские Песнопения
Track name : Рождество Христово
Track name/Position : 04
Performer : Иулия Колосова, Светлана Верещак, Ольга Забродина
Genre : Песнопения
Recorded date : 2001
Comment : Ивановская обл. Юрьевецкий р-он, с. Никола-Елнать, храм Воскресения Христова.
Audio
Format : MPEG Audio
Format version : Version 1
Format profile : Layer 3
Duration : 1mn 23s
Bit rate mode : Constant
Bit rate : 192 Kbps
Channel(s) : 2 channels
Sampling rate : 44.1 KHz
Resolution : 16 bits
Stream size : 1.90 MiB (100%)

General
Complete name : Рождество Христово ангел прилетел.mp3
Format : MPEG Audio
File size : 2.32 MiB
Duration : 1mn 15s
Overall bit rate : 256 Kbps
Album : Рождество Христово. Праздничные Церковные Песнопения
Track name : Рождество Христово - Ангел Прилетел
Track name/Position : 16
Track name/Total : 16
Performer : Хор Храма Успения Пресвятой Богородицы
Genre : Orthodox
Recorded date : 2000
Encoding settings : Audiograbber 1.81.03, Fraunhofer acm, 256 kBit/s, 44,100 Hz, Stereo, HQ = on
Cover : Yes
Cover type : Cover (front)
Cover MIME : image/jpg
CDDB Disc ID : 0E102823
Audio
Format : MPEG Audio
Format version : Version 1
Format profile : Layer 3
Duration : 1mn 15s
Bit rate mode : Constant
Bit rate : 256 Kbps
Channel(s) : 2 channels
Sampling rate : 44.1 KHz
Resolution : 16 bits
Stream size : 2.30 MiB (99%)

General
Complete name : Рождество.mp3
Format : MPEG Audio
File size : 2.78 MiB
Duration : 1mn 30s
Overall bit rate : 256 Kbps
Album : Берегите любовь
Track name : Рождество
Track name/Position : 12
Performer : Детский хор приюта Покровского монастыря
Genre : Музыка
ContentType : Chorus
Recorded date : 2004
Writing library : Exact Audio Copy (Burst mode) / LAME3.92
Comment : 01.01.07
Audio
Format : MPEG Audio
Format version : Version 1
Format profile : Layer 3
Duration : 1mn 30s
Bit rate mode : Constant
Bit rate : 256 Kbps
Channel(s) : 2 channels
Sampling rate : 44.1 KHz
Resolution : 16 bits
Stream size : 2.77 MiB (100%)
Writing library : LAME3.92
Encoding settings : -m s -V 4 -q 2 -lowpass 20.1

General
Complete name : С Рождеством.mp3
Format : MPEG Audio
File size : 2.65 MiB
Duration : 2mn 53s
Overall bit rate : 128 Kbps
Track name/Position : 17
Writing library : AIMP Classic
Audio
Format : MPEG Audio
Format version : Version 1
Format profile : Layer 3
Duration : 2mn 53s
Bit rate mode : Constant
Bit rate : 128 Kbps
Channel(s) : 2 channels
Sampling rate : 44.1 KHz
Resolution : 16 bits
Stream size : 2.64 MiB (100%)

General
Complete name : Свет рождественской звезды Арт студия (плюс).mp3
Format : MPEG Audio
File size : 7.46 MiB
Duration : 3mn 13s
Overall bit rate : 320 Kbps
Recorded date : 2014-2014-01 20:25
Audio
Format : MPEG Audio
Format version : Version 1
Format profile : Layer 3
Duration : 3mn 13s
Bit rate mode : Constant
Bit rate : 320 Kbps
Channel(s) : 2 channels
Sampling rate : 44.1 KHz
Resolution : 16 bits
Stream size : 7.38 MiB (99%)

General
Complete name : Свет рождественской звезды минус.mp3
Format : MPEG Audio
File size : 7.63 MiB
Duration : 3mn 20s
Overall bit rate : 320 Kbps
Recorded date : 2013
Writing library : LAME in FL Studio 11 / LAME3.98.4
BPM : 130
Audio
Format : MPEG Audio
Format version : Version 1
Format profile : Layer 3
Duration : 3mn 20s
Bit rate mode : Constant
Bit rate : 320 Kbps
Channel(s) : 2 channels
Sampling rate : 44.1 KHz
Resolution : 16 bits
Stream size : 7.63 MiB (100%)
Writing library : LAME3.98.4

General
Complete name : Свет рождественской звезды плюс.mp3
Format : MPEG Audio
File size : 7.63 MiB
Duration : 3mn 20s
Overall bit rate : 320 Kbps
Writing library : LAME3.98.2
Audio
Format : MPEG Audio
Format version : Version 1
Format profile : Layer 3
Duration : 3mn 20s
Bit rate mode : Constant
Bit rate : 320 Kbps
Channel(s) : 2 channels
Sampling rate : 44.1 KHz
Resolution : 16 bits
Stream size : 7.63 MiB (100%)
Writing library : LAME3.98.2

General
Complete name : Светлый праздник Рождества.mp3
Format : MPEG Audio
File size : 3.03 MiB
Duration : 3mn 18s
Overall bit rate : 128 Kbps
Genre : Blues
Audio
Format : MPEG Audio
Format version : Version 1
Format profile : Layer 3
Duration : 3mn 18s
Bit rate mode : Constant
Bit rate : 128 Kbps
Channel(s) : 2 channels
Sampling rate : 44.1 KHz
Resolution : 16 bits
Stream size : 3.03 MiB (100%)

General
Complete name : Свеча Рождества (минус).mp3
Format : MPEG Audio
File size : 6.79 MiB
Duration : 2mn 56s
Overall bit rate : 320 Kbps
Album : www.liberty4ever.com
Track name : Киндер сюрприз - Свеча Рождества (-)
Performer : www.liberty4ever.com
Writing library : LAME3.97.3
Cover : Yes
Cover description : /home/lib4ever/www/liberty4ever.com/id3/logomp3.png
Cover type : Illustration
Cover MIME : image/png
Comment : Администрация сайта http://www.liberty4ever.com не несет ответственность за дальнейшее использование любых файлов с нашего сайта. Все музыкальные файлы, находящиеся на сайте, предназначены только для домашнего использования! Коммерческое использование фонограмм, минусовок, миди, караоке, строго запрещено! Вся ответственность, после скачивания файла, ложится непосредственно только на пользователя.
Audio
Format : MPEG Audio
Format version : Version 1
Format profile : Layer 3
Duration : 2mn 56s
Bit rate mode : Constant
Bit rate : 320 Kbps
Channel(s) : 2 channels
Sampling rate : 44.1 KHz
Resolution : 16 bits
Stream size : 6.74 MiB (99%)
Writing library : LAME3.97.3

General
Complete name : Свеча Рождества (плюс).mp3
Format : MPEG Audio
File size : 3.15 MiB
Duration : 2mn 59s
Overall bit rate : 147 Kbps
Album : Этот мир такой цветно9
Track name : Свеча Рождества
Performer : Солисты группы
Genre : Pop
Writing library : LAME3.98r
Audio
Format : MPEG Audio
Format version : Version 1
Format profile : Layer 3
Duration : 2mn 59s
Bit rate mode : Variable
Bit rate : 147 Kbps
Minimum bit rate : 32.0 Kbps
Channel(s) : 2 channels
Sampling rate : 44.1 KHz
Resolution : 16 bits
Stream size : 3.15 MiB (100%)
Writing library : LAME3.98r
Encoding settings : -m j -V 5 -q 5 -lowpass 16.5 --vbr-new -b 32

General
Complete name : Сербская Рождественкая песня.mp3
Format : MPEG Audio
File size : 11.1 MiB
Duration : 4mn 50s
Overall bit rate : 320 Kbps
Album : Obnovimo sebe - podignimo Stupove
Track name : Bozic, Bozic, blagi dan
Track name/Position : 11
Track name/Total : 13
Performer : Stupovi
Accompaniment : Stupovi
Genre : Other
Recorded date : 2006
Encoding settings : Audiograbber 1.83.01, External encoder lame.exe (%s %d -b 320)
Comment : www.ms-stupovi.com
Audio
Format : MPEG Audio
Format version : Version 1
Format profile : Layer 3
Duration : 4mn 50s
Bit rate mode : Constant
Bit rate : 320 Kbps
Channel(s) : 2 channels
Sampling rate : 44.1 KHz
Resolution : 16 bits
Stream size : 11.1 MiB (100%)

General
Complete name : Серебристые снежинки минус.mp3
Format : MPEG Audio
File size : 3.53 MiB
Duration : 3mn 51s
Overall bit rate : 128 Kbps
Album : www.fonogramm.net
Track name : Серебристые Снежинки
Performer : Детские Песни
Genre : Instrumental
Recorded date : 2008
Comment : detskie_pesni_-_serebristye_snejinki
Audio
Format : MPEG Audio
Format version : Version 1
Format profile : Layer 3
Duration : 3mn 51s
Bit rate mode : Constant
Bit rate : 128 Kbps
Channel(s) : 2 channels
Sampling rate : 44.1 KHz
Resolution : 16 bits
Stream size : 3.53 MiB (100%)

General
Complete name : Серебристые снежинки плюс.mp3
Format : MPEG Audio
File size : 8.82 MiB
Duration : 3mn 51s
Overall bit rate : 320 Kbps
Album : Неизвестный диск (03.12.2010 9:30:16)
Track name : Серебристые снежинки +
Track name/Position : 3
Performer : Неизвестный исполнитель
Genre : Неизвестный жанр
MCDI : Yes
Audio
Format : MPEG Audio
Format version : Version 1
Format profile : Layer 3
Duration : 3mn 51s
Bit rate mode : Constant
Bit rate : 320 Kbps
Channel(s) : 2 channels
Sampling rate : 44.1 KHz
Resolution : 16 bits
Stream size : 8.82 MiB (100%)

General
Complete name : Сияют свечи минус.mp3
Format : MPEG Audio
File size : 11.9 MiB
Duration : 5mn 11s
Overall bit rate : 320 Kbps
Album : http://x-minus.org/
Track name : Сияют свечи (-) x-minus.org
Performer : Анна Широченко
Writing library : LAME3.98.2
Comment : ??????????? - sadko-by
Audio
Format : MPEG Audio
Format version : Version 1
Format profile : Layer 3
Duration : 5mn 11s
Bit rate mode : Constant
Bit rate : 320 Kbps
Channel(s) : 2 channels
Sampling rate : 44.1 KHz
Resolution : 16 bits
Stream size : 11.9 MiB (100%)
Writing library : LAME3.98.2

General
Complete name : Сияют свечи плюс (Опять в глубинах декабря).mp3
Format : MPEG Audio
File size : 9.78 MiB
Duration : 5mn 20s
Overall bit rate : 256 Kbps
Album : Неизвестный альбом (24.10.2011 8:03:16)
Track name : Дорожка 15
Track name/Position : 15
Performer : Неизвестный исполнитель
Genre : Неизвестный жанр
MCDI : Yes
Audio
Format : MPEG Audio
Format version : Version 1
Format profile : Layer 3
Duration : 5mn 20s
Bit rate mode : Constant
Bit rate : 256 Kbps
Channel(s) : 2 channels
Sampling rate : 44.1 KHz
Resolution : 16 bits
Stream size : 9.77 MiB (100%)

General
Complete name : Смолкли на улице звуки свирели 1.mp3
Format : MPEG Audio
File size : 3.09 MiB
Duration : 3mn 22s
Overall bit rate : 128 Kbps
Audio
Format : MPEG Audio
Format version : Version 1
Format profile : Layer 3
Duration : 3mn 22s
Bit rate mode : Constant
Bit rate : 128 Kbps
Channel(s) : 2 channels
Sampling rate : 44.1 KHz
Resolution : 16 bits
Stream size : 3.09 MiB (100%)

General
Complete name : Смолкли на улице звуки свирели 2 (И. Болдышева).mp3
Format : MPEG Audio
File size : 4.91 MiB
Duration : 3mn 34s
Overall bit rate : 192 Kbps
Track name : Track23
Track name/Position : 23
Track name/Total : 0
Genre : Blues
Writing library : Acoustica Converter Pro / LAME3.96
Comment : Created with Acoustica Conve
Comments : Created with Acoustica Converter Pro
Audio
Format : MPEG Audio
Format version : Version 1
Format profile : Layer 3
Duration : 3mn 34s
Bit rate mode : Constant
Bit rate : 192 Kbps
Channel(s) : 2 channels
Sampling rate : 44.1 KHz
Resolution : 16 bits
Stream size : 4.91 MiB (100%)
Writing library : LAME3.96

General
Complete name : Смолкли на улице звуки свирели 3.mp3
Format : MPEG Audio
File size : 1.56 MiB
Duration : 1mn 41s
Overall bit rate : 128 Kbps
Album : Album
Track name : Track 14
Track name/Position : 14
Performer : Artist
Writing library : LAME3.97ЄЄЄЄЄЄЄЄЄЄЄЄ
Comment : Free 14-day trial - http://www.audio-transcoder.com
Audio
Format : MPEG Audio
Format version : Version 1
Format profile : Layer 3
Duration : 1mn 41s
Bit rate mode : Constant
Bit rate : 128 Kbps
Channel(s) : 2 channels
Sampling rate : 32.0 KHz
Resolution : 16 bits
Stream size : 1.56 MiB (100%)
Writing library : LAME3.97ЄЄЄЄЄЄЄЄЄЄЄЄ

General
Complete name : Снежинки (И. Болдышева).mp3
Format : MPEG Audio
File size : 2.48 MiB
Duration : 1mn 5s
Overall bit rate : 320 Kbps
Album : Всё у Бога в радости живет
Track name : Снежинки
Track name/Position : 18
Performer : Хор Иоанна Дамаскина
Accompaniment : Хор Иоанна Дамаскина
Genre : Orthodox
Recorded date : 2011
Writing library : LAME3.98r
Audio
Format : MPEG Audio
Format version : Version 1
Format profile : Layer 3
Duration : 1mn 5s
Bit rate mode : Constant
Bit rate : 320 Kbps
Channel(s) : 2 channels
Sampling rate : 44.1 KHz
Resolution : 16 bits
Stream size : 2.48 MiB (100%)
Writing library : LAME3.98r
Encoding settings : -m j -V 4 -q 3 -lowpass 20.5

General
Complete name : Тихая ночь.mp3
Format : MPEG Audio
File size : 4.73 MiB
Duration : 2mn 3s
Overall bit rate : 320 Kbps
Track name : Track 9
File type : /3
Media Type : (CD/DD)
Audio
Format : MPEG Audio
Format version : Version 1
Format profile : Layer 3
Duration : 2mn 3s
Bit rate mode : Constant
Bit rate : 320 Kbps
Channel(s) : 2 channels
Sampling rate : 44.1 KHz
Resolution : 16 bits
Stream size : 4.73 MiB (100%)

General
Complete name : Тихо шепчут падая снежинки минус.mp3
Format : MPEG Audio
File size : 5.75 MiB
Duration : 3mn 8s
Overall bit rate : 256 Kbps
Audio
Format : MPEG Audio
Format version : Version 1
Format profile : Layer 3
Duration : 3mn 8s
Bit rate mode : Constant
Bit rate : 256 Kbps
Channel(s) : 2 channels
Sampling rate : 44.1 KHz
Resolution : 16 bits
Stream size : 5.75 MiB (100%)

General
Complete name : Тихо шепчут падая снежинки плюс.mp3
Format : MPEG Audio
File size : 2.90 MiB
Duration : 3mn 10s
Overall bit rate : 128 Kbps
Audio
Format : MPEG Audio
Format version : Version 1
Format profile : Layer 3
Duration : 3mn 10s
Bit rate mode : Constant
Bit rate : 128 Kbps
Channel(s) : 2 channels
Sampling rate : 44.1 KHz
Resolution : 16 bits
Stream size : 2.90 MiB (100%)

General
Complete name : То было в давние года.mp3
Format : MPEG Audio
File size : 5.03 MiB
Duration : 5mn 29s
Overall bit rate : 128 Kbps
Album : Берегите любовь
Track name : То было в давние года
Performer : Детский хор приюта Покровского монастыря
Recorded date : 2004
Comment : 01.01.07
Audio
Format : MPEG Audio
Format version : Version 1
Format profile : Layer 3
Duration : 5mn 29s
Bit rate mode : Constant
Bit rate : 128 Kbps
Channel(s) : 2 channels
Sampling rate : 44.1 KHz
Resolution : 16 bits
Stream size : 5.03 MiB (100%)

General
Complete name : Три орешка для Золушки (для проигрыша или танца).mp3
Format : MPEG Audio
File size : 8.96 MiB
Duration : 4mn 53s
Overall bit rate : 256 Kbps
Track name : jkjkj
Genre : Other
Audio
Format : MPEG Audio
Format version : Version 1
Format profile : Layer 3
Duration : 4mn 53s
Bit rate mode : Constant
Bit rate : 256 Kbps
Channel(s) : 2 channels
Sampling rate : 44.1 KHz
Resolution : 16 bits
Stream size : 8.96 MiB (100%)

General
Complete name : Что так ясно в зту ночь.mp3
Format : MPEG Audio
File size : 2.57 MiB
Duration : 1mn 52s
Overall bit rate : 192 Kbps
Album : Рождественские Песнопения
Track name : Что так ясно в зту ночь
Track name/Position : 17
Performer : Иулия Колосова, Светлана Верещак, Ольга Забродина
Genre : Песнопения
Recorded date : 2001
Comment : Ивановская обл. Юрьевецкий р-он, с. Никола-Елнать, храм Воскресения Христова.
Audio
Format : MPEG Audio
Format version : Version 1
Format profile : Layer 3
Duration : 1mn 52s
Bit rate mode : Constant
Bit rate : 192 Kbps
Channel(s) : 2 channels
Sampling rate : 44.1 KHz
Resolution : 16 bits
Stream size : 2.57 MiB (100%)

General
Complete name : Эта ночь святая (1).mp3
Format : MPEG Audio
File size : 2.67 MiB
Duration : 2mn 54s
Overall bit rate : 128 Kbps
Track name : эта ночь святая
Genre : Other
Comment : хор Иоанна Дамаскина
Audio
Format : MPEG Audio
Format version : Version 1
Format profile : Layer 3
Duration : 2mn 54s
Bit rate mode : Constant
Bit rate : 128 Kbps
Channel(s) : 2 channels
Sampling rate : 44.1 KHz
Resolution : 16 bits
Stream size : 2.66 MiB (100%)

General
Complete name : Эта ночь святая (2).mp3
Format : MPEG Audio
File size : 6.69 MiB
Duration : 3mn 38s
Overall bit rate : 256 Kbps
Album : Берегите любовь
Track name : Эта ночь святая
Track name/Position : 13
Performer : Детский хор приюта Покровского монастыря
Genre : Музыка
ContentType : Chorus
Recorded date : 2004
Writing library : Exact Audio Copy (Burst mode) / LAME3.92
Comment : 01.01.07
Audio
Format : MPEG Audio
Format version : Version 1
Format profile : Layer 3
Duration : 3mn 38s
Bit rate mode : Constant
Bit rate : 256 Kbps
Channel(s) : 2 channels
Sampling rate : 44.1 KHz
Resolution : 16 bits
Stream size : 6.68 MiB (100%)
Writing library : LAME3.92
Encoding settings : -m s -V 4 -q 2 -lowpass 20.1

General
Complete name : Этот праздник в середине зимы плюс.mp3
Format : MPEG Audio
File size : 8.07 MiB
Duration : 3mn 31s
Overall bit rate : 320 Kbps
Album : Неизвестный диск (21.12.2008 22:40:55)
Track name : Дорожка 4
Track name/Position : 4
Performer : Неизвестный исполнитель
Genre : Неизвестный жанр
[Профиль]  [ЛС] 

Татьяна хв

Стаж: 5 лет 6 месяцев

Сообщений: 55

post 25-Апр-2015 10:33 (спустя 3 минуты)

[Цитировать] 

Информация по аудио-файлам оказалась большой и не вместилась в тему. Поэтому вынесла её в сообщение.
[Профиль]  [ЛС] 

zvezdohka

Стаж: 15 дней

Сообщений: 13

Russia

post 25-Ноя-2016 11:31 (спустя 1 год 7 месяцев)

[Цитировать] 

Добрый день вам.Пожалуйста,встаньте на раздачу.Очень нужны песенки для подготовки к Рождественскому утреннику!

_________________
можно все.но не сразу.или сразу.но не все.
[Профиль]  [ЛС] 

zvezdohka

Стаж: 15 дней

Сообщений: 13

Russia

post 25-Ноя-2016 18:18 (спустя 6 часов)

[Цитировать] 

Пожалуйста,помогите докачать. осталось нескаченным 19 процентов.

_________________
можно все.но не сразу.или сразу.но не все.
[Профиль]  [ЛС] 
Показать сообщения:    
Ответить на тему

Текущее время: 03-Дек 15:32

Часовой пояс: GMT + 4



Вы не можете начинать темы
Вы не можете отвечать на сообщения
Вы не можете редактировать свои сообщения
Вы не можете удалять свои сообщения
Вы не можете голосовать в опросах
Вы не можете прикреплять файлы к сообщениям
Вы не можете скачивать файлы