Loading...
Error

(Песнопения знаменного распева) Из старопоморских певческих книг. Задостойники (4 диска) - 2003, FLAC (tracks), lossless

Ответить на тему
Статистика раздачи
Качают: [ 1 ]
Скачали: [ 11 ]
   
 
Автор Сообщение

etrusk

Стаж: 6 лет 2 месяца

Сообщений: 128

Russia

post 02-Ноя-2010 01:51

[Цитировать] 

Из старопоморских певческих книг. Задостойники (4 диска)

pic
Страна: Россия
Жанр: Песнопения знаменного распева
Год выпуска: 2003
Формат: FLAC (tracks)
Битрейт аудио: lossless
Продолжительность: 5:10:31
Трэклист:
CD 1-2:
pic
CD 3-4:
pic
Дополнительная информация: С логами вышла небольшая промашка: в первых двух дисках тестирование и копирование проводились отдельно друг от друга, из-за чего образовалось по два лог-файла. Технически слил в один файл. На 2-ом диске имеются ошибки в последних трех треках.
CD 1 - EAC log
Exact Audio Copy V0.99 prebeta 5 from 4. May 2009
Отчёт EAC об извлечении, выполненном 27. сентября 2010, 13:48
Преображенская община / Задостойники. Часть 1
Дисковод: Optiarc DVD RW AD-7200S Adapter: 5 ID: 0
Режим чтения : Достоверность
Использование точного потока : Да
Отключение кэша аудио : Да
Использование указателей C2 : Нет
Коррекция смещения при чтении : 48
Способность читать области Lead-in и Lead-out : Нет
Заполнение пропущенных сэмплов тишиной : Да
Удаление блоков с тишиной в начале и конце : Нет
При вычислениях CRC использовались нулевые сэмплы : Да
Интерфейс : Встроенный Win32-интерфейс для Win NT/2000
Обработка зазоров : Добавлено к предыдущему треку
Только тест извлечения
TOC извлечённого CD Трек | Старт | Длительность | Начальный сектор |
Конечный сектор
--------------------------------------------------------------------- 1
| 0:00.00 | 1:18.60 | 0 | 5909 2 | 1:18.60 | 1:49.22 | 5910 | 14106 3 |
3:08.07 | 2:29.67 | 14107 | 25348 4 | 5:37.74 | 2:22.44 | 25349 | 36042
5 | 8:00.43 | 2:28.24 | 36043 | 47166 6 | 10:28.67 | 2:37.10 | 47167 |
58951 7 | 13:06.02 | 4:50.32 | 58952 | 80733 8 | 17:56.34 | 6:21.22 |
80734 | 109330 9 | 24:17.56 | 5:07.02 | 109331 | 132357 10 | 29:24.58 |
7:21.23 | 132358 | 165455 11 | 36:46.06 | 4:25.72 | 165456 | 185402 12
| 41:12.03 | 4:27.28 | 185403 | 205455 13 | 45:39.31 | 12:32.23 |
205456 | 261878 14 | 58:11.54 | 3:26.20 | 261879 | 277348 15 | 61:37.74
| 6:12.47 | 277349 | 305295 16 | 67:50.46 | 3:31.36 | 305296 | 321156
17 | 71:22.07 | 6:10.16 | 321157 | 348922 Трек 1 Имя файла
J:\Audio\Богослужение по древнему чину\01 - Track01.wav Длина
предзазора 0:00:02.00 Пиковый уровень 92.6 % Качество трека 100.0 % CRC
теста 4737D1A1 Копирование... OK
Трек 2 Имя файла J:\Audio\Богослужение по древнему чину\02 -
Track02.wav Пиковый уровень 92.8 % Качество трека 100.0 % CRC теста
DA67F2B8 Копирование... OK
Трек 3 Имя файла J:\Audio\Богослужение по древнему чину\03 -
Track03.wav Пиковый уровень 93.2 % Качество трека 100.0 % CRC теста
76EC58BE Копирование... OK
Трек 4 Имя файла J:\Audio\Богослужение по древнему чину\04 -
Track04.wav Пиковый уровень 93.2 % Качество трека 100.0 % CRC теста
C081E63E Копирование... OK
Трек 5 Имя файла J:\Audio\Богослужение по древнему чину\05 -
Track05.wav Пиковый уровень 93.2 % Качество трека 100.0 % CRC теста
BE7A7317 Копирование... OK
Трек 6 Имя файла J:\Audio\Богослужение по древнему чину\06 -
Track06.wav Пиковый уровень 93.2 % Качество трека 100.0 % CRC теста
9D5FFCB5 Копирование... OK
Трек 7 Имя файла J:\Audio\Богослужение по древнему чину\07 -
Track07.wav Пиковый уровень 92.3 % Качество трека 100.0 % CRC теста
D37241CB Копирование... OK
Трек 8 Имя файла J:\Audio\Богослужение по древнему чину\08 -
Track08.wav Пиковый уровень 87.7 % Качество трека 100.0 % CRC теста
FE80AC5F Копирование... OK
Трек 9 Имя файла J:\Audio\Богослужение по древнему чину\09 -
Track09.wav Пиковый уровень 88.8 % Качество трека 100.0 % CRC теста
B29E68AB Копирование... OK
Трек 10 Имя файла J:\Audio\Богослужение по древнему чину\10 -
Track10.wav Пиковый уровень 89.2 % Качество трека 99.9 % CRC теста
AE37949B Копирование... OK
Трек 11 Имя файла J:\Audio\Богослужение по древнему чину\11 -
Track11.wav Пиковый уровень 89.1 % Качество трека 99.9 % CRC теста
184A86A5 Копирование... OK
Трек 12 Имя файла J:\Audio\Богослужение по древнему чину\12 -
Track12.wav Пиковый уровень 89.8 % Качество трека 100.0 % CRC теста
116C67A4 Копирование... OK
Трек 13 Имя файла J:\Audio\Богослужение по древнему чину\13 -
Track13.wav Пиковый уровень 90.6 % Качество трека 100.0 % CRC теста
0DE950E5 Копирование... OK
Трек 14 Имя файла J:\Audio\Богослужение по древнему чину\14 -
Track14.wav Пиковый уровень 86.9 % Качество трека 100.0 % CRC теста
29A34FA5 Копирование... OK
Трек 15 Имя файла J:\Audio\Богослужение по древнему чину\15 -
Track15.wav Пиковый уровень 90.3 % Качество трека 100.0 % CRC теста
1ADC32E3 Копирование... OK
Трек 16 Имя файла J:\Audio\Богослужение по древнему чину\16 -
Track16.wav Пиковый уровень 93.1 % Качество трека 100.0 % CRC теста
124E0CA6 Копирование... OK
Трек 17 Имя файла J:\Audio\Богослужение по древнему чину\17 -
Track17.wav Пиковый уровень 92.3 % Качество трека 100.0 % CRC теста
A801F650 Копирование... OK
Ошибок не произошло
Конец отчёта

------------------------------------------------------------

Exact Audio Copy V0.99 prebeta 5 from 4. May 2009
Отчёт EAC об извлечении, выполненном 30. сентября 2010, 2:55
Преображенская община / Задостойники. Часть 1
Дисковод: Optiarc DVD RW AD-7200S Adapter: 5 ID: 0
Режим чтения : Достоверность
Использование точного потока : Да
Отключение кэша аудио : Да
Использование указателей C2 : Нет
Коррекция смещения при чтении : 48
Способность читать области Lead-in и Lead-out : Нет
Заполнение пропущенных сэмплов тишиной : Да
Удаление блоков с тишиной в начале и конце : Нет
При вычислениях CRC использовались нулевые сэмплы : Да
Интерфейс : Встроенный Win32-интерфейс для Win NT/2000
Обработка зазоров : Не обнаружено, добавлено к предыдущему треку
Выходной формат : Внутренние WAV-операции
Формат сэмплов : 44.100 Гц; 16 бит; стерео
TOC извлечённого CD Трек | Старт | Длительность | Начальный сектор |
Конечный сектор
--------------------------------------------------------------------- 1
| 0:00.00 | 1:18.60 | 0 | 5909 2 | 1:18.60 | 1:49.22 | 5910 | 14106 3 |
3:08.07 | 2:29.67 | 14107 | 25348 4 | 5:37.74 | 2:22.44 | 25349 | 36042
5 | 8:00.43 | 2:28.24 | 36043 | 47166 6 | 10:28.67 | 2:37.10 | 47167 |
58951 7 | 13:06.02 | 4:50.32 | 58952 | 80733 8 | 17:56.34 | 6:21.22 |
80734 | 109330 9 | 24:17.56 | 5:07.02 | 109331 | 132357 10 | 29:24.58 |
7:21.23 | 132358 | 165455 11 | 36:46.06 | 4:25.72 | 165456 | 185402 12
| 41:12.03 | 4:27.28 | 185403 | 205455 13 | 45:39.31 | 12:32.23 |
205456 | 261878 14 | 58:11.54 | 3:26.20 | 261879 | 277348 15 | 61:37.74
| 6:12.47 | 277349 | 305295 16 | 67:50.46 | 3:31.36 | 305296 | 321156
17 | 71:22.07 | 6:10.16 | 321157 | 348922 Трек 1 Имя файла
J:\Audio\Задостойники\Задостойники. Часть 1\01 - Track01.wav Пиковый
уровень 92.6 % Качество трека 100.0 % CRC копии 4737D1A1 Копирование...
OK
Трек 2 Имя файла J:\Audio\Задостойники\Задостойники. Часть 1\02 -
Track02.wav Пиковый уровень 92.8 % Качество трека 100.0 % CRC копии
DA67F2B8 Копирование... OK
Трек 3 Имя файла J:\Audio\Задостойники\Задостойники. Часть 1\03 -
Track03.wav Пиковый уровень 93.2 % Качество трека 100.0 % CRC копии
76EC58BE Копирование... OK
Трек 4 Имя файла J:\Audio\Задостойники\Задостойники. Часть 1\04 -
Track04.wav Пиковый уровень 93.2 % Качество трека 100.0 % CRC копии
C081E63E Копирование... OK
Трек 5 Имя файла J:\Audio\Задостойники\Задостойники. Часть 1\05 -
Track05.wav Пиковый уровень 93.2 % Качество трека 100.0 % CRC копии
BE7A7317 Копирование... OK
Трек 6 Имя файла J:\Audio\Задостойники\Задостойники. Часть 1\06 -
Track06.wav Пиковый уровень 93.2 % Качество трека 100.0 % CRC копии
9D5FFCB5 Копирование... OK
Трек 7 Имя файла J:\Audio\Задостойники\Задостойники. Часть 1\07 -
Track07.wav Пиковый уровень 92.3 % Качество трека 100.0 % CRC копии
D37241CB Копирование... OK
Трек 8 Имя файла J:\Audio\Задостойники\Задостойники. Часть 1\08 -
Track08.wav Пиковый уровень 87.7 % Качество трека 100.0 % CRC копии
FE80AC5F Копирование... OK
Трек 9 Имя файла J:\Audio\Задостойники\Задостойники. Часть 1\09 -
Track09.wav Пиковый уровень 88.8 % Качество трека 100.0 % CRC копии
B29E68AB Копирование... OK
Трек 10 Имя файла J:\Audio\Задостойники\Задостойники. Часть 1\10 -
Track10.wav Пиковый уровень 89.2 % Качество трека 99.9 % CRC копии
AE37949B Копирование... OK
Трек 11 Имя файла J:\Audio\Задостойники\Задостойники. Часть 1\11 -
Track11.wav Пиковый уровень 89.1 % Качество трека 99.9 % CRC копии
184A86A5 Копирование... OK
Трек 12 Имя файла J:\Audio\Задостойники\Задостойники. Часть 1\12 -
Track12.wav Пиковый уровень 89.8 % Качество трека 100.0 % CRC копии
116C67A4 Копирование... OK
Трек 13 Имя файла J:\Audio\Задостойники\Задостойники. Часть 1\13 -
Track13.wav Пиковый уровень 90.6 % Качество трека 100.0 % CRC копии
0DE950E5 Копирование... OK
Трек 14 Имя файла J:\Audio\Задостойники\Задостойники. Часть 1\14 -
Track14.wav Пиковый уровень 86.9 % Качество трека 100.0 % CRC копии
29A34FA5 Копирование... OK
Трек 15 Имя файла J:\Audio\Задостойники\Задостойники. Часть 1\15 -
Track15.wav Пиковый уровень 90.3 % Качество трека 100.0 % CRC копии
1ADC32E3 Копирование... OK
Трек 16 Имя файла J:\Audio\Задостойники\Задостойники. Часть 1\16 -
Track16.wav Пиковый уровень 93.1 % Качество трека 100.0 % CRC копии
124E0CA6 Копирование... OK
Трек 17 Имя файла J:\Audio\Задостойники\Задостойники. Часть 1\17 -
Track17.wav Пиковый уровень 92.3 % Качество трека 100.0 % CRC копии
A801F650 Копирование... OK
Ошибок не произошло
Конец отчёта
CD 2 - EAC log
Exact Audio Copy V0.99 prebeta 5 from 4. May 2009
Отчёт EAC об извлечении, выполненном 28. сентября 2010, 14:41
Преображенская община / Задостойники. Часть 2
Дисковод: Optiarc DVD RW AD-7200S Adapter: 5 ID: 0
Режим чтения : Достоверность
Использование точного потока : Да
Отключение кэша аудио : Да
Использование указателей C2 : Нет
Коррекция смещения при чтении : 48
Способность читать области Lead-in и Lead-out : Нет
Заполнение пропущенных сэмплов тишиной : Да
Удаление блоков с тишиной в начале и конце : Нет
При вычислениях CRC использовались нулевые сэмплы : Да
Интерфейс : Встроенный Win32-интерфейс для Win NT/2000
Обработка зазоров : Добавлено к предыдущему треку
Только тест извлечения
TOC извлечённого CD Трек | Старт | Длительность | Начальный сектор |
Конечный сектор
--------------------------------------------------------------------- 1
| 0:00.00 | 9:54.27 | 0 | 44576 2 | 9:54.27 | 3:08.16 | 44577 | 58692 3
| 13:02.43 | 6:00.41 | 58693 | 85733 4 | 19:03.09 | 7:04.54 | 85734 |
117587 5 | 26:07.63 | 3:28.54 | 117588 | 133241 6 | 29:36.42 | 6:08.00
| 133242 | 160841 7 | 35:44.42 | 6:42.58 | 160842 | 191049 8 | 42:27.25
| 3:33.00 | 191050 | 207024 9 | 46:00.25 | 5:37.49 | 207025 | 232348 10
| 51:37.74 | 5:33.50 | 232349 | 257373 11 | 57:11.49 | 2:39.30 | 257374
| 269328 12 | 59:51.04 | 3:48.38 | 269329 | 286466 13 | 63:39.42 |
5:43.58 | 286467 | 312249 14 | 69:23.25 | 2:51.43 | 312250 | 325117 15
| 72:14.68 | 4:51.09 | 325118 | 346951 Трек 1 Имя файла
J:\Audio\Богослужение по древнему чину\01 - Track01.wav Длина
предзазора 0:00:02.00 Пиковый уровень 92.4 % Качество трека 99.9 % CRC
теста 8164386A Копирование... OK
Трек 2 Имя файла J:\Audio\Богослужение по древнему чину\02 -
Track02.wav Пиковый уровень 89.5 % Качество трека 100.0 % CRC теста
7B8A0DE0 Копирование... OK
Трек 3 Имя файла J:\Audio\Богослужение по древнему чину\03 -
Track03.wav Пиковый уровень 90.0 % Качество трека 100.0 % CRC теста
6306794D Копирование... OK
Трек 4 Имя файла J:\Audio\Богослужение по древнему чину\04 -
Track04.wav Пиковый уровень 91.3 % Качество трека 99.9 % CRC теста
D74070E6 Копирование... OK
Трек 5 Имя файла J:\Audio\Богослужение по древнему чину\05 -
Track05.wav Пиковый уровень 91.5 % Качество трека 100.0 % CRC теста
7D52437F Копирование... OK
Трек 6 Имя файла J:\Audio\Богослужение по древнему чину\06 -
Track06.wav Пиковый уровень 90.5 % Качество трека 100.0 % CRC теста
ED6BF4A4 Копирование... OK
Трек 7 Имя файла J:\Audio\Богослужение по древнему чину\07 -
Track07.wav Пиковый уровень 89.1 % Качество трека 99.9 % CRC теста
A8E7602F Копирование... OK
Трек 8 Имя файла J:\Audio\Богослужение по древнему чину\08 -
Track08.wav Пиковый уровень 90.0 % Качество трека 100.0 % CRC теста
B4DEA985 Копирование... OK
Трек 9 Имя файла J:\Audio\Богослужение по древнему чину\09 -
Track09.wav Пиковый уровень 89.7 % Качество трека 100.0 % CRC теста
A2FA39E1 Копирование... OK
Трек 10 Имя файла J:\Audio\Богослужение по древнему чину\10 -
Track10.wav Пиковый уровень 89.4 % Качество трека 100.0 % CRC теста
EDE55FD9 Копирование... OK
Трек 11 Имя файла J:\Audio\Богослужение по древнему чину\11 -
Track11.wav Пиковый уровень 88.7 % Качество трека 99.9 % CRC теста
7338C6F0 Копирование... OK
Трек 12 Имя файла J:\Audio\Богослужение по древнему чину\12 -
Track12.wav Пиковый уровень 89.5 % Качество трека 100.0 % CRC теста
97247E28 Копирование... OK
Трек 13 Имя файла J:\Audio\Богослужение по древнему чину\13 -
Track13.wav Подозрительная позиция 0:04:04 Подозрительная позиция
0:04:21 Подозрительная позиция 0:04:56 - 0:04:57 Подозрительная позиция
0:05:02 - 0:05:06 Подозрительная позиция 0:05:08 Подозрительная позиция
0:05:10 Подозрительная позиция 0:05:12 - 0:05:38 Подозрительная позиция
0:05:41 - 0:05:43 Пиковый уровень 90.3 % Качество трека 97.2 % CRC
теста ACDF9C79 Копирование завершено
Трек 14 Имя файла J:\Audio\Богослужение по древнему чину\14 -
Track14.wav Подозрительная позиция 0:00:00 - 0:00:01 Подозрительная
позиция 0:00:03 - 0:00:04 Подозрительная позиция 0:00:06 Подозрительная
позиция 0:00:08 - 0:00:10 Подозрительная позиция 0:00:13 - 0:00:14
Подозрительная позиция 0:00:16 - 0:00:20 Подозрительная позиция 0:00:22
- 0:00:29 Подозрительная позиция 0:00:31 - 0:00:37 Подозрительная
позиция 0:00:39 - 0:00:42 Подозрительная позиция 0:00:44 - 0:01:07
Подозрительная позиция 0:01:11 Подозрительная позиция 0:01:13 - 0:01:14
Подозрительная позиция 0:01:16 - 0:01:18 Подозрительная позиция 0:01:26
Подозрительная позиция 0:01:31 Подозрительная позиция 0:01:33
Подозрительная позиция 0:01:36 Подозрительная позиция 0:01:38 - 0:01:41
Подозрительная позиция 0:01:43 Подозрительная позиция 0:01:45 - 0:01:47
Подозрительная позиция 0:01:49 - 0:01:51 Подозрительная позиция 0:01:53
Подозрительная позиция 0:01:55 - 0:01:56 Подозрительная позиция 0:01:58
- 0:02:51 Пиковый уровень 100.0 % Качество трека 95.7 % CRC теста
EDB16113 Копирование завершено
Трек 15 Имя файла J:\Audio\Богослужение по древнему чину\15 -
Track15.wav Подозрительная позиция 0:00:00 - 0:03:19 Подозрительная
позиция 0:03:21 Подозрительная позиция 0:03:23 Подозрительная позиция
0:03:25 Подозрительная позиция 0:03:30 Подозрительная позиция 0:03:43 -
0:03:44 Пиковый уровень 99.9 % Качество трека 94.9 % CRC теста C471A342
Копирование завершено
Были ошибки
Конец отчёта

------------------------------------------------------------

Exact Audio Copy V0.99 prebeta 5 from 4. May 2009
Отчёт EAC об извлечении, выполненном 29. сентября 2010, 3:21
Преображенская община / Задостойники. Часть 2
Дисковод: Optiarc DVD RW AD-7200S Adapter: 5 ID: 0
Режим чтения : Достоверность
Использование точного потока : Да
Отключение кэша аудио : Да
Использование указателей C2 : Нет
Коррекция смещения при чтении : 48
Способность читать области Lead-in и Lead-out : Нет
Заполнение пропущенных сэмплов тишиной : Да
Удаление блоков с тишиной в начале и конце : Нет
При вычислениях CRC использовались нулевые сэмплы : Да
Интерфейс : Встроенный Win32-интерфейс для Win NT/2000
Обработка зазоров : Добавлено к предыдущему треку
Выходной формат : Внутренние WAV-операции
Формат сэмплов : 44.100 Гц; 16 бит; стерео
TOC извлечённого CD Трек | Старт | Длительность | Начальный сектор |
Конечный сектор
--------------------------------------------------------------------- 1
| 0:00.00 | 9:54.27 | 0 | 44576 2 | 9:54.27 | 3:08.16 | 44577 | 58692 3
| 13:02.43 | 6:00.41 | 58693 | 85733 4 | 19:03.09 | 7:04.54 | 85734 |
117587 5 | 26:07.63 | 3:28.54 | 117588 | 133241 6 | 29:36.42 | 6:08.00
| 133242 | 160841 7 | 35:44.42 | 6:42.58 | 160842 | 191049 8 | 42:27.25
| 3:33.00 | 191050 | 207024 9 | 46:00.25 | 5:37.49 | 207025 | 232348 10
| 51:37.74 | 5:33.50 | 232349 | 257373 11 | 57:11.49 | 2:39.30 | 257374
| 269328 12 | 59:51.04 | 3:48.38 | 269329 | 286466 13 | 63:39.42 |
5:43.58 | 286467 | 312249 14 | 69:23.25 | 2:51.43 | 312250 | 325117 15
| 72:14.68 | 4:51.09 | 325118 | 346951 Трек 1 Имя файла
J:\Audio\Задостойники\Задостойники. Часть 2\01 - Track01.wav Длина
предзазора 0:00:02.00 Пиковый уровень 92.4 % Качество трека 99.9 % CRC
копии 8164386A Копирование... OK
Трек 2 Имя файла J:\Audio\Задостойники\Задостойники. Часть 2\02 -
Track02.wav Пиковый уровень 89.5 % Качество трека 100.0 % CRC копии
7B8A0DE0 Копирование... OK
Трек 3 Имя файла J:\Audio\Задостойники\Задостойники. Часть 2\03 -
Track03.wav Пиковый уровень 90.0 % Качество трека 100.0 % CRC копии
6306794D Копирование... OK
Трек 4 Имя файла J:\Audio\Задостойники\Задостойники. Часть 2\04 -
Track04.wav Пиковый уровень 91.3 % Качество трека 99.9 % CRC копии
D74070E6 Копирование... OK
Трек 5 Имя файла J:\Audio\Задостойники\Задостойники. Часть 2\05 -
Track05.wav Пиковый уровень 91.5 % Качество трека 100.0 % CRC копии
7D52437F Копирование... OK
Трек 6 Имя файла J:\Audio\Задостойники\Задостойники. Часть 2\06 -
Track06.wav Пиковый уровень 90.5 % Качество трека 100.0 % CRC копии
ED6BF4A4 Копирование... OK
Трек 7 Имя файла J:\Audio\Задостойники\Задостойники. Часть 2\07 -
Track07.wav Пиковый уровень 89.1 % Качество трека 99.9 % CRC копии
A8E7602F Копирование... OK
Трек 8 Имя файла J:\Audio\Задостойники\Задостойники. Часть 2\08 -
Track08.wav Пиковый уровень 90.0 % Качество трека 100.0 % CRC копии
B4DEA985 Копирование... OK
Трек 9 Имя файла J:\Audio\Задостойники\Задостойники. Часть 2\09 -
Track09.wav Пиковый уровень 89.7 % Качество трека 100.0 % CRC копии
A2FA39E1 Копирование... OK
Трек 10 Имя файла J:\Audio\Задостойники\Задостойники. Часть 2\10 -
Track10.wav Пиковый уровень 89.4 % Качество трека 100.0 % CRC копии
EDE55FD9 Копирование... OK
Трек 11 Имя файла J:\Audio\Задостойники\Задостойники. Часть 2\11 -
Track11.wav Пиковый уровень 88.7 % Качество трека 99.9 % CRC копии
7338C6F0 Копирование... OK
Трек 12 Имя файла J:\Audio\Задостойники\Задостойники. Часть 2\12 -
Track12.wav Пиковый уровень 89.5 % Качество трека 99.9 % CRC копии
97247E28 Копирование... OK
Трек 13 Имя файла J:\Audio\Задостойники\Задостойники. Часть 2\13 -
Track13.wav Подозрительная позиция 0:03:41 Подозрительная позиция
0:04:04 Подозрительная позиция 0:04:39 Подозрительная позиция 0:04:49
Подозрительная позиция 0:04:55 - 0:04:57 Подозрительная позиция 0:05:02
- 0:05:10 Подозрительная позиция 0:05:12 - 0:05:43 Пиковый уровень 99.9
% Качество трека 96.9 % CRC копии C96D3A82 Копирование завершено
Были ошибки
Конец отчёта
------------------------------------------------------------
Exact Audio Copy V0.99 prebeta 5 from 4. May 2009
Отчёт EAC об извлечении, выполненном 29. сентября 2010, 11:24
Преображенская община / Задостойники. Часть 2
Дисковод: Optiarc DVD RW AD-7200S Adapter: 5 ID: 0
Режим чтения : Достоверность
Использование точного потока : Да
Отключение кэша аудио : Да
Использование указателей C2 : Нет
Коррекция смещения при чтении : 48
Способность читать области Lead-in и Lead-out : Нет
Заполнение пропущенных сэмплов тишиной : Да
Удаление блоков с тишиной в начале и конце : Нет
При вычислениях CRC использовались нулевые сэмплы : Да
Интерфейс : Встроенный Win32-интерфейс для Win NT/2000
Обработка зазоров : Добавлено к предыдущему треку
Выходной формат : Внутренние WAV-операции
Формат сэмплов : 44.100 Гц; 16 бит; стерео
TOC извлечённого CD Трек | Старт | Длительность | Начальный сектор |
Конечный сектор
--------------------------------------------------------------------- 1
| 0:00.00 | 9:54.27 | 0 | 44576 2 | 9:54.27 | 3:08.16 | 44577 | 58692 3
| 13:02.43 | 6:00.41 | 58693 | 85733 4 | 19:03.09 | 7:04.54 | 85734 |
117587 5 | 26:07.63 | 3:28.54 | 117588 | 133241 6 | 29:36.42 | 6:08.00
| 133242 | 160841 7 | 35:44.42 | 6:42.58 | 160842 | 191049 8 | 42:27.25
| 3:33.00 | 191050 | 207024 9 | 46:00.25 | 5:37.49 | 207025 | 232348 10
| 51:37.74 | 5:33.50 | 232349 | 257373 11 | 57:11.49 | 2:39.30 | 257374
| 269328 12 | 59:51.04 | 3:48.38 | 269329 | 286466 13 | 63:39.42 |
5:43.58 | 286467 | 312249 14 | 69:23.25 | 2:51.43 | 312250 | 325117 15
| 72:14.68 | 4:51.09 | 325118 | 346951 Трек 14 Имя файла
J:\Audio\Задостойники\Задостойники. Часть 2\14 - Track14.wav
Подозрительная позиция 0:00:00 - 0:00:04 Подозрительная позиция 0:00:07
- 0:00:10 Подозрительная позиция 0:00:12 - 0:00:13 Подозрительная
позиция 0:00:15 - 0:00:20 Подозрительная позиция 0:00:23 - 0:00:29
Подозрительная позиция 0:00:31 - 0:00:37 Подозрительная позиция 0:00:39
- 0:01:09 Подозрительная позиция 0:01:11 Подозрительная позиция 0:01:13
- 0:01:14 Подозрительная позиция 0:01:18 Подозрительная позиция 0:01:23
Подозрительная позиция 0:01:26 Подозрительная позиция 0:01:31 - 0:01:34
Подозрительная позиция 0:01:36 Подозрительная позиция 0:01:38 - 0:01:39
Подозрительная позиция 0:01:41 Подозрительная позиция 0:01:43 - 0:01:47
Подозрительная позиция 0:01:49 - 0:02:51 Пиковый уровень 99.9 %
Качество трека 95.6 % CRC копии 9FC70526 Копирование завершено
Были ошибки
Конец отчёта
------------------------------------------------------------
Exact Audio Copy V0.99 prebeta 5 from 4. May 2009
Отчёт EAC об извлечении, выполненном 30. сентября 2010, 2:14
Преображенская община / Задостойники. Часть 2
Дисковод: Optiarc DVD RW AD-7200S Adapter: 5 ID: 0
Режим чтения : Достоверность
Использование точного потока : Да
Отключение кэша аудио : Да
Использование указателей C2 : Нет
Коррекция смещения при чтении : 48
Способность читать области Lead-in и Lead-out : Нет
Заполнение пропущенных сэмплов тишиной : Да
Удаление блоков с тишиной в начале и конце : Нет
При вычислениях CRC использовались нулевые сэмплы : Да
Интерфейс : Встроенный Win32-интерфейс для Win NT/2000
Обработка зазоров : Добавлено к предыдущему треку
Выходной формат : Внутренние WAV-операции
Формат сэмплов : 44.100 Гц; 16 бит; стерео
TOC извлечённого CD Трек | Старт | Длительность | Начальный сектор |
Конечный сектор
--------------------------------------------------------------------- 1
| 0:00.00 | 9:54.27 | 0 | 44576 2 | 9:54.27 | 3:08.16 | 44577 | 58692 3
| 13:02.43 | 6:00.41 | 58693 | 85733 4 | 19:03.09 | 7:04.54 | 85734 |
117587 5 | 26:07.63 | 3:28.54 | 117588 | 133241 6 | 29:36.42 | 6:08.00
| 133242 | 160841 7 | 35:44.42 | 6:42.58 | 160842 | 191049 8 | 42:27.25
| 3:33.00 | 191050 | 207024 9 | 46:00.25 | 5:37.49 | 207025 | 232348 10
| 51:37.74 | 5:33.50 | 232349 | 257373 11 | 57:11.49 | 2:39.30 | 257374
| 269328 12 | 59:51.04 | 3:48.38 | 269329 | 286466 13 | 63:39.42 |
5:43.58 | 286467 | 312249 14 | 69:23.25 | 2:51.43 | 312250 | 325117 15
| 72:14.68 | 4:51.09 | 325118 | 346951 Трек 15 Имя файла
J:\Audio\Задостойники\Задостойники. Часть 2\15 - Track15.wav
Подозрительная позиция 0:00:00 - 0:03:19 Подозрительная позиция 0:03:21
Подозрительная позиция 0:03:23 Подозрительная позиция 0:03:25
Подозрительная позиция 0:03:29 - 0:03:30 Подозрительная позиция 0:03:36
Подозрительная позиция 0:03:43 Пиковый уровень 99.9 % Качество трека
94.8 % CRC копии A9D317BD Копирование завершено
Были ошибки
Конец отчёта
CD 3 - EAC log
Exact Audio Copy V0.99 prebeta 5 from 4. May 2009
Отчёт EAC об извлечении, выполненном 30. сентября 2010, 21:02
Преображенская община / Задостойники. Часть 3
Дисковод: Optiarc DVD RW AD-7200S Adapter: 5 ID: 0
Режим чтения : Достоверность
Использование точного потока : Да
Отключение кэша аудио : Да
Использование указателей C2 : Нет
Коррекция смещения при чтении : 48
Способность читать области Lead-in и Lead-out : Нет
Заполнение пропущенных сэмплов тишиной : Да
Удаление блоков с тишиной в начале и конце : Нет
При вычислениях CRC использовались нулевые сэмплы : Да
Интерфейс : Встроенный Win32-интерфейс для Win NT/2000
Обработка зазоров : Добавлено к предыдущему треку
Выходной формат : Внутренние WAV-операции
Формат сэмплов : 44.100 Гц; 16 бит; стерео
TOC извлечённого CD Трек | Старт | Длительность | Начальный сектор |
Конечный сектор
--------------------------------------------------------------------- 1
| 0:00.00 | 5:27.04 | 0 | 24528 2 | 5:27.04 | 2:57.17 | 24529 | 37820 3
| 8:24.21 | 5:30.71 | 37821 | 62641 4 | 13:55.17 | 5:19.11 | 62642 |
86577 5 | 19:14.28 | 1:45.67 | 86578 | 94519 6 | 21:00.20 | 3:18.20 |
94520 | 109389 7 | 24:18.40 | 3:39.27 | 109390 | 125841 8 | 27:57.67 |
2:26.52 | 125842 | 136843 9 | 30:24.44 | 4:24.47 | 136844 | 156690 10 |
34:49.16 | 6:53.69 | 156691 | 187734 11 | 41:43.10 | 2:41.32 | 187735 |
199841 12 | 44:24.42 | 4:22.48 | 199842 | 219539 13 | 48:47.15 |
4:58.14 | 219540 | 241903 14 | 53:45.29 | 2:58.06 | 241904 | 255259 15
| 56:43.35 | 5:49.20 | 255260 | 281454 16 | 62:32.55 | 7:30.47 | 281455
| 315251 17 | 70:03.27 | 1:10.12 | 315252 | 320513 18 | 71:13.39 |
2:08.28 | 320514 | 330141 19 | 73:21.67 | 2:32.35 | 330142 | 341576 20
| 75:54.27 | 2:12.09 | 341577 | 351485 Трек 1 Имя файла
J:\Audio\Задостойники\Задостойники. Часть 3\01 - Track01.wav Длина
предзазора 0:00:02.00 Пиковый уровень 92.8 % Качество трека 100.0 % CRC
теста B6576062 CRC копии B6576062 Трек не обнаружен в базе AccurateRip
Копирование... OK
Трек 2 Имя файла J:\Audio\Задостойники\Задостойники. Часть 3\02 -
Track02.wav Пиковый уровень 91.8 % Качество трека 100.0 % CRC теста
2D8B2AE5 CRC копии 2D8B2AE5 Трек не обнаружен в базе AccurateRip
Копирование... OK
Трек 3 Имя файла J:\Audio\Задостойники\Задостойники. Часть 3\03 -
Track03.wav Пиковый уровень 92.8 % Качество трека 100.0 % CRC теста
AAFC5DC9 CRC копии AAFC5DC9 Трек не обнаружен в базе AccurateRip
Копирование... OK
Трек 4 Имя файла J:\Audio\Задостойники\Задостойники. Часть 3\04 -
Track04.wav Пиковый уровень 92.5 % Качество трека 100.0 % CRC теста
31216C31 CRC копии 31216C31 Трек не обнаружен в базе AccurateRip
Копирование... OK
Трек 5 Имя файла J:\Audio\Задостойники\Задостойники. Часть 3\05 -
Track05.wav Пиковый уровень 91.5 % Качество трека 99.8 % CRC теста
42AF3EA4 CRC копии 42AF3EA4 Трек не обнаружен в базе AccurateRip
Копирование... OK
Трек 6 Имя файла J:\Audio\Задостойники\Задостойники. Часть 3\06 -
Track06.wav Пиковый уровень 90.7 % Качество трека 100.0 % CRC теста
500DE88E CRC копии 500DE88E Трек не обнаружен в базе AccurateRip
Копирование... OK
Трек 7 Имя файла J:\Audio\Задостойники\Задостойники. Часть 3\07 -
Track07.wav Пиковый уровень 91.4 % Качество трека 100.0 % CRC теста
8C157BC8 CRC копии 8C157BC8 Трек не обнаружен в базе AccurateRip
Копирование... OK
Трек 8 Имя файла J:\Audio\Задостойники\Задостойники. Часть 3\08 -
Track08.wav Пиковый уровень 91.4 % Качество трека 100.0 % CRC теста
3FAC04CE CRC копии 3FAC04CE Трек не обнаружен в базе AccurateRip
Копирование... OK
Трек 9 Имя файла J:\Audio\Задостойники\Задостойники. Часть 3\09 -
Track09.wav Пиковый уровень 91.3 % Качество трека 100.0 % CRC теста
1C988F3A CRC копии 1C988F3A Трек не обнаружен в базе AccurateRip
Копирование... OK
Трек 10 Имя файла J:\Audio\Задостойники\Задостойники. Часть 3\10 -
Track10.wav Пиковый уровень 92.7 % Качество трека 100.0 % CRC теста
A3E2CB46 CRC копии A3E2CB46 Трек не обнаружен в базе AccurateRip
Копирование... OK
Трек 11 Имя файла J:\Audio\Задостойники\Задостойники. Часть 3\11 -
Track11.wav Пиковый уровень 92.2 % Качество трека 100.0 % CRC теста
6C7E897D CRC копии 6C7E897D Трек не обнаружен в базе AccurateRip
Копирование... OK
Трек 12 Имя файла J:\Audio\Задостойники\Задостойники. Часть 3\12 -
Track12.wav Пиковый уровень 92.3 % Качество трека 99.9 % CRC теста
B2F6157F CRC копии B2F6157F Трек не обнаружен в базе AccurateRip
Копирование... OK
Трек 13 Имя файла J:\Audio\Задостойники\Задостойники. Часть 3\13 -
Track13.wav Пиковый уровень 91.9 % Качество трека 99.9 % CRC теста
0FA7DFE5 CRC копии 0FA7DFE5 Трек не обнаружен в базе AccurateRip
Копирование... OK
Трек 14 Имя файла J:\Audio\Задостойники\Задостойники. Часть 3\14 -
Track14.wav Пиковый уровень 91.0 % Качество трека 100.0 % CRC теста
340AC622 CRC копии 340AC622 Трек не обнаружен в базе AccurateRip
Копирование... OK
Трек 15 Имя файла J:\Audio\Задостойники\Задостойники. Часть 3\15 -
Track15.wav Пиковый уровень 92.3 % Качество трека 100.0 % CRC теста
FCCF71B5 CRC копии FCCF71B5 Трек не обнаружен в базе AccurateRip
Копирование... OK
Трек 16 Имя файла J:\Audio\Задостойники\Задостойники. Часть 3\16 -
Track16.wav Пиковый уровень 93.0 % Качество трека 99.9 % CRC теста
34660F83 CRC копии 34660F83 Трек не обнаружен в базе AccurateRip
Копирование... OK
Трек 17 Имя файла J:\Audio\Задостойники\Задостойники. Часть 3\17 -
Track17.wav Пиковый уровень 92.6 % Качество трека 100.0 % CRC теста
60D8FBCF CRC копии 60D8FBCF Трек не обнаружен в базе AccurateRip
Копирование... OK
Трек 18 Имя файла J:\Audio\Задостойники\Задостойники. Часть 3\18 -
Track18.wav Пиковый уровень 92.1 % Качество трека 100.0 % CRC теста
2D92F3CB CRC копии 2D92F3CB Трек не обнаружен в базе AccurateRip
Копирование... OK
Трек 19 Имя файла J:\Audio\Задостойники\Задостойники. Часть 3\19 -
Track19.wav Пиковый уровень 92.4 % Качество трека 100.0 % CRC теста
2809DC16 CRC копии 2809DC16 Трек не обнаружен в базе AccurateRip
Копирование... OK
Трек 20 Имя файла J:\Audio\Задостойники\Задостойники. Часть 3\20 -
Track20.wav Пиковый уровень 93.1 % Качество трека 100.0 % CRC теста
FA81DDA4 CRC копии FA81DDA4 Трек не обнаружен в базе AccurateRip
Копирование... OK
Ни одного трека нет в базе AccurateRip
Ошибок не произошло
Конец отчёта
CD 4 - EAC log
Exact Audio Copy V0.99 prebeta 5 from 4. May 2009
Отчёт EAC об извлечении, выполненном 30. сентября 2010, 22:48
Преображенская община / Задостойники. Часть 4
Дисковод: Optiarc DVD RW AD-7200S Adapter: 5 ID: 0
Режим чтения : Достоверность
Использование точного потока : Да
Отключение кэша аудио : Да
Использование указателей C2 : Нет
Коррекция смещения при чтении : 48
Способность читать области Lead-in и Lead-out : Нет
Заполнение пропущенных сэмплов тишиной : Да
Удаление блоков с тишиной в начале и конце : Нет
При вычислениях CRC использовались нулевые сэмплы : Да
Интерфейс : Встроенный Win32-интерфейс для Win NT/2000
Обработка зазоров : Добавлено к предыдущему треку
Выходной формат : Внутренние WAV-операции
Формат сэмплов : 44.100 Гц; 16 бит; стерео
TOC извлечённого CD Трек | Старт | Длительность | Начальный сектор |
Конечный сектор
--------------------------------------------------------------------- 1
| 0:00.00 | 3:23.48 | 0 | 15272 2 | 3:23.48 | 3:41.37 | 15273 | 31884 3
| 7:05.10 | 2:50.23 | 31885 | 44657 4 | 9:55.33 | 6:03.70 | 44658 |
71952 5 | 15:59.28 | 1:01.41 | 71953 | 76568 6 | 17:00.69 | 1:57.32 |
76569 | 85375 7 | 18:58.26 | 1:27.70 | 85376 | 91970 8 | 20:26.21 |
3:58.29 | 91971 | 109849 9 | 24:24.50 | 3:43.47 | 109850 | 126621 10 |
28:08.22 | 3:01.55 | 126622 | 140251 11 | 31:10.02 | 5:08.55 | 140252 |
163406 12 | 36:18.57 | 3:01.16 | 163407 | 176997 13 | 39:19.73 |
5:35.46 | 176998 | 202168 14 | 44:55.44 | 8:29.13 | 202169 | 240356 15
| 53:24.57 | 2:01.72 | 240357 | 249503 16 | 55:26.54 | 3:49.69 | 249504
| 266747 17 | 59:16.48 | 5:45.16 | 266748 | 292638 18 | 65:01.64 |
2:34.02 | 292639 | 304190 19 | 67:35.66 | 3:49.06 | 304191 | 321371 20
| 71:24.72 | 6:21.13 | 321372 | 349959 Трек 1 Имя файла
J:\Audio\Задостойники\Задостойники. Часть 4\01 - Track01.wav Длина
предзазора 0:00:02.00 Пиковый уровень 92.0 % Качество трека 100.0 % CRC
теста 2383C32C CRC копии 2383C32C Трек не обнаружен в базе AccurateRip
Копирование... OK
Трек 2 Имя файла J:\Audio\Задостойники\Задостойники. Часть 4\02 -
Track02.wav Пиковый уровень 93.2 % Качество трека 99.9 % CRC теста
AC8AF315 CRC копии AC8AF315 Трек не обнаружен в базе AccurateRip
Копирование... OK
Трек 3 Имя файла J:\Audio\Задостойники\Задостойники. Часть 4\03 -
Track03.wav Пиковый уровень 92.3 % Качество трека 100.0 % CRC теста
0AE28C5A CRC копии 0AE28C5A Трек не обнаружен в базе AccurateRip
Копирование... OK
Трек 4 Имя файла J:\Audio\Задостойники\Задостойники. Часть 4\04 -
Track04.wav Пиковый уровень 93.2 % Качество трека 99.9 % CRC теста
C041D06C CRC копии C041D06C Трек не обнаружен в базе AccurateRip
Копирование... OK
Трек 5 Имя файла J:\Audio\Задостойники\Задостойники. Часть 4\05 -
Track05.wav Пиковый уровень 92.6 % Качество трека 100.0 % CRC теста
6E2604C8 CRC копии 6E2604C8 Трек не обнаружен в базе AccurateRip
Копирование... OK
Трек 6 Имя файла J:\Audio\Задостойники\Задостойники. Часть 4\06 -
Track06.wav Пиковый уровень 92.4 % Качество трека 100.0 % CRC теста
4A928C53 CRC копии 4A928C53 Трек не обнаружен в базе AccurateRip
Копирование... OK
Трек 7 Имя файла J:\Audio\Задостойники\Задостойники. Часть 4\07 -
Track07.wav Пиковый уровень 93.2 % Качество трека 100.0 % CRC теста
59216B8E CRC копии 59216B8E Трек не обнаружен в базе AccurateRip
Копирование... OK
Трек 8 Имя файла J:\Audio\Задостойники\Задостойники. Часть 4\08 -
Track08.wav Пиковый уровень 92.1 % Качество трека 99.9 % CRC теста
6137D440 CRC копии 6137D440 Трек не обнаружен в базе AccurateRip
Копирование... OK
Трек 9 Имя файла J:\Audio\Задостойники\Задостойники. Часть 4\09 -
Track09.wav Пиковый уровень 92.0 % Качество трека 100.0 % CRC теста
775BCF29 CRC копии 775BCF29 Трек не обнаружен в базе AccurateRip
Копирование... OK
Трек 10 Имя файла J:\Audio\Задостойники\Задостойники. Часть 4\10 -
Track10.wav Пиковый уровень 91.0 % Качество трека 100.0 % CRC теста
747F673B CRC копии 747F673B Трек не обнаружен в базе AccurateRip
Копирование... OK
Трек 11 Имя файла J:\Audio\Задостойники\Задостойники. Часть 4\11 -
Track11.wav Пиковый уровень 92.7 % Качество трека 100.0 % CRC теста
0D2789A4 CRC копии 0D2789A4 Трек не обнаружен в базе AccurateRip
Копирование... OK
Трек 12 Имя файла J:\Audio\Задостойники\Задостойники. Часть 4\12 -
Track12.wav Пиковый уровень 93.2 % Качество трека 100.0 % CRC теста
AE2965AD CRC копии AE2965AD Трек не обнаружен в базе AccurateRip
Копирование... OK
Трек 13 Имя файла J:\Audio\Задостойники\Задостойники. Часть 4\13 -
Track13.wav Пиковый уровень 91.9 % Качество трека 100.0 % CRC теста
954D6801 CRC копии 954D6801 Трек не обнаружен в базе AccurateRip
Копирование... OK
Трек 14 Имя файла J:\Audio\Задостойники\Задостойники. Часть 4\14 -
Track14.wav Пиковый уровень 92.8 % Качество трека 100.0 % CRC теста
9CBFCCF3 CRC копии 9CBFCCF3 Трек не обнаружен в базе AccurateRip
Копирование... OK
Трек 15 Имя файла J:\Audio\Задостойники\Задостойники. Часть 4\15 -
Track15.wav Пиковый уровень 91.3 % Качество трека 100.0 % CRC теста
3D8A4E5F CRC копии 3D8A4E5F Трек не обнаружен в базе AccurateRip
Копирование... OK
Трек 16 Имя файла J:\Audio\Задостойники\Задостойники. Часть 4\16 -
Track16.wav Пиковый уровень 93.3 % Качество трека 100.0 % CRC теста
6531343D CRC копии 6531343D Трек не обнаружен в базе AccurateRip
Копирование... OK
Трек 17 Имя файла J:\Audio\Задостойники\Задостойники. Часть 4\17 -
Track17.wav Пиковый уровень 93.2 % Качество трека 100.0 % CRC теста
B47901F3 CRC копии B47901F3 Трек не обнаружен в базе AccurateRip
Копирование... OK
Трек 18 Имя файла J:\Audio\Задостойники\Задостойники. Часть 4\18 -
Track18.wav Пиковый уровень 93.2 % Качество трека 100.0 % CRC теста
BE93C0B1 CRC копии BE93C0B1 Трек не обнаружен в базе AccurateRip
Копирование... OK
Трек 19 Имя файла J:\Audio\Задостойники\Задостойники. Часть 4\19 -
Track19.wav Пиковый уровень 93.2 % Качество трека 100.0 % CRC теста
EE6327AA CRC копии EE6327AA Трек не обнаружен в базе AccurateRip
Копирование... OK
Трек 20 Имя файла J:\Audio\Задостойники\Задостойники. Часть 4\20 -
Track20.wav Пиковый уровень 93.3 % Качество трека 100.0 % CRC теста
67EF387D CRC копии 67EF387D Трек не обнаружен в базе AccurateRip
Копирование... OK
Ни одного трека нет в базе AccurateRip
Ошибок не произошло
Конец отчёта
Запись представляет собой единый альбом, лишь для удобства издания разбитый на диски (два двойных). По этой причине рип сделан потреково, кроме того, приведена двойная нумерация треков: сквозная и подисковая (т.е. можно все файлы слить в одну папку). Обложки также вынесены в отдельную папку. Приложены и индексные карты.
Исполнитель: кружок знаменного пения при Московской Преображенской общине.
Исполнение по старопоморским рукописям 18-19 веков (если я правильно понял, федосеевской рукописной традиции).
В этом же исполнении и в той же серии несколько раньше выходил альбом "Песнопения Святой Пасхи", однако, в качестве исполнителей указан рижский кружок знаменного пения. На "Вечерней песни" из него присутствуют отдельные треки. Если вдруг у кого-то есть на дисках, выложите, пожалуйста.
От себя: Великолепный альбом. Такое разнообразие распевов редко где можно услышать. Присутствуют все виды: малый, столповой, путевой, демественный, большой. Исполнение простенькое, всего два голоса, но это не минус, поскольку хорошо слышен текст и мелодия, что очень даже замечательно. Рекомендую всем любителям знаменного пения.
Download

Войдите для скачивания торрент-файла

Как скачивать  ·   Правила трекера



Последний раз редактировалось: etrusk (2014-07-09 13:32), всего редактировалось 2 раз(а)
[Профиль]  [ЛС] 

Alex-naon

Стаж: 7 лет 2 месяца

Сообщений: 7

Ussr

post 13-Ноя-2010 04:37 (спустя 11 дней)

[Цитировать] 

Спаси Христос! Слушай отец, давай зазнкомимся, а то ты такие штуки классные закачиваешь. Я - Александр, головщик питерской единоверческой часовни. По моему нику небось догадался каким направлением певческим я интересуюсь Wink

_________________
За молитвъ святых отецъ нашихъ Господи Iсусе Христе Сыне Божiй помилуй нас. Амин.
[Профиль]  [ЛС] 

etrusk

Стаж: 6 лет 2 месяца

Сообщений: 128

Russia

post 14-Ноя-2010 06:38 (спустя 1 день 2 часа)

[Цитировать] 

Alex-naon
До "отца" мне как пешком от Москвы до Шанхая. Smile Познакомиться я не прочь, для этого и существует ЛС. Пишите, Александр, гостям всегда рад.
[Профиль]  [ЛС] 

Владимир Лухов

Стаж: 6 лет 2 месяца

Сообщений: 105

Откуда: Саратов

Russia

post 23-Ноя-2010 07:53 (спустя 9 дней)

[Цитировать] 

Спасибо!
[Профиль]  [ЛС] 

Медыньский

post 30-Ноя-2010 19:17 (спустя 7 дней)

[Цитировать] 

а po activney mozhno razdavat! prostite chto tak rezko.
 

Заблудший

post 09-Сен-2011 21:37 (спустя 9 месяцев)

[Цитировать] 

[b]Спаси Христос раздающих эту благодать! Радость на душе от таких песнопений!
 

Седалон

Стаж: 5 лет 1 месяц

Сообщений: 8

Russia

post 18-Фев-2012 19:17 (спустя 5 месяцев 8 дней)

[Цитировать] 

СПАСИ ХРХРИСТЕ ВСЕХ РАЗДАЮЩИХ! такую благодать в ВЕЛИКИЙ ПОСТ- ЭКАЯ РАДОСТЬ НА ДУШЕ!
ДАЙ ВАМ БОГ ПРОВЕСТИ ВЕЛИКИЙ ПОСТ В МОЛИТВЕ И ПОКАЯНИИ!
[Профиль]  [ЛС] 

slovenin

post 16-Мар-2012 05:23 (спустя 26 дней)

[Цитировать] 

Великолепное исполнение!
 

slovenin

post 16-Мар-2012 05:25 (спустя 1 минута)

[Цитировать] 

Вот бы, кто из закачавших пасхальный канон этих же исполнителей встал на раздачу...
 

vika010288

Стаж: 7 лет 5 месяцев

Сообщений: 459

Georgia

post 16-Мар-2012 17:31 (спустя 12 часов)

[Цитировать] 

Спасибо,послушаем.
[Профиль]  [ЛС] 

андрейструс

Стаж: 3 года 7 месяцев

Сообщений: 9

post 05-Дек-2013 20:14 (спустя 1 год 8 месяцев)

[Цитировать] 

спасибо
[Профиль]  [ЛС] 

stepan-frunze

Стаж: 7 лет 9 месяцев

Сообщений: 2565

Russia

post 23-Дек-2013 16:47 (спустя 17 дней)

[Цитировать] 

Спаси Христос!
[Профиль]  [ЛС] 

seraphim88

Стаж: 2 года 7 месяцев

Сообщений: 1

post 15-Май-2014 08:53 (спустя 4 месяца 22 дня)

[Цитировать] 

Помогите, пожалуйста, скачать великолепный альбом! Запись уникальная!
[Профиль]  [ЛС] 

Prawda

Стаж: 4 года 5 месяцев

Сообщений: 1

Откуда: Висагинас

Lithuania

post 29-Фев-2016 21:41 (спустя 1 год 9 месяцев)

[Цитировать] 

Помогите ради Христа, докачать альбом! 43% осталось...

_________________
"Душе израненной доброе слово — лекарство". Григорий Богослов
[Профиль]  [ЛС] 

Alexander1985

Стаж: 1 месяц 9 дней

Сообщений: 7

Russia

post 30-Окт-2016 17:16 (спустя 8 месяцев)

[Цитировать] 

Спаси Господи!
[Профиль]  [ЛС] 
Показать сообщения:    
Ответить на тему

Текущее время: 09-Дек 02:24

Часовой пояс: GMT + 4



Вы не можете начинать темы
Вы не можете отвечать на сообщения
Вы не можете редактировать свои сообщения
Вы не можете удалять свои сообщения
Вы не можете голосовать в опросах
Вы не можете прикреплять файлы к сообщениям
Вы не можете скачивать файлы