Loading...
Error

(Церковная музыка и церковные хоры (lossless)) Хор братии Московского Подворья Свято-Троицкой Сергиевой Лавры - Достойно Есть. Литургия святителя Иоанна Златоуста (2CD) - 2002, FLAC (image+.cue), lossless

Ответить на тему
Статистика раздачи
Скачали: [ 30 ]
   
 
Автор Сообщение

Р.Б.А

Стаж: 7 лет

Сообщений: 2680

Russia

post 24-Июн-2015 13:10

[Цитировать] 

Хор братии Московского Подворья Свято-Троицкой Сергиевой Лавры / Достойно Есть. Литургия святителя Иоанна Златоуста

pic
Страна: Россия
Жанр: Церковная музыка и церковные хоры (lossless)
Год выпуска: 2002
Формат: FLAC (image + .cue)
Битрейт аудио: lossless
Продолжительность: CD1 - 00:49:50 / CD 2 - 00:45:32 / Общая - 01:35:22
Наличие сканов в содержимом раздачи: да
Содержание:
CD 1

1. Мирная ектения. Изборский напев в обработке М.Котогарова
2. "Благослови, душе моя, Господа". Знаменный распев
3. Малая ектения. Знаменный распев
4. "Слава... Хвали, душе моя, Господа". Знаменный распев
5. "И ныне... Единородный Сыне". Путевой распев. Расшифровка Н.Успенского
6. Малая ектения. Знаменный распев
7. "Во Царствии Твоем". Знаменный распев
8. "Прийдите, поклонимся". Сокращенный Знаменный распев
9. Тропари по входе. Малый Знаменный распев
10. "Господи, спаси благочестивыя..." Трисвятое. Знаменный распев
11. Прокимен. Знаменный распев
12. Чтение Апостола
13. Аллилуарий. Опевы Евангелия. Знаменный распев
14. Чтение Евангелия
15. Сугубая ектения. Знаменный распев
16. Ектения об оглашенных. Знаменный распев
17. Херувимская песнь. Глас 5. Византийский распев. Иеромонах Афанасий Рилец

CD 2

1. Просительная ектения. Знаменный распев
2. "Отца и Сына...". Знаменный распев
3. "Верую". Валаамский напев
4. "Милость мира". Глас 5. Византийский распев. По обиходу русского Ильинского скита на св. Горе Афон
5. "Достойно есть". Глас 6. Византийский распев. Никола Златарский
6. Просительная ектения. Знаменный распев
7. "Отче наш...". Знаменный распев
8."Един Свят...". Знаменный распев
9. Запричастный стих. Знаменный распев
10. "Марие Дево". Текст и музыка святителя Нектария Эгинского
11. "Со страхом Божиим...". Знаменный распев
12. "Видехом Свет истинный". Знаменный распев
13. "Да исполнятся уста наша". Знаменный распев
14. Малая ектения. Знаменный распев
15. Заамвонная молитва
16. Отпуст
Обложка+Содержание
picpic
Достойно Еcть
Достойно есть яко воистинну блажити Тя, Богородицу, Присноблаженную и Пренепорочную и Матерь Бога нашего. Честнейшую Херувим и славнейшую без сравнения Серафим, без истления Бога Слова рождшую, сущую Богородицу Тя величаем.
pic
Дополнительная информация
Лог создания рипа
CD1
Exact Audio Copy V1.0 beta 3 from 29. August 2011

Отчёт EAC об извлечении, выполненном 20. июня 2015, 6:04

Хор Московского Подворья Свято-Троицкой Сергиевой Лавры / Достойно Есть. CD1

Дисковод: _NEC DVD_RW ND-4571A Adapter: 2 ID: 0

Режим чтения : Достоверность
Использование точного потока : Да
Отключение кэша аудио : Да
Использование указателей C2 : Нет

Коррекция смещения при чтении : 48
Способность читать области Lead-in и Lead-out : Нет
Заполнение пропущенных сэмплов тишиной : Да
Удаление блоков с тишиной в начале и конце : Нет
При вычислениях CRC использовались нулевые сэмплы : Да
Интерфейс : Встроенный Win32-интерфейс для Win NT/2000

Выходной формат : Пользовательский кодировщик
Выбранный битрейт : 1024 kBit/s
Качество : Высокий
Добавление ID3-тега : Да
Утилита сжатия : C:\Program Files\Exact Audio Copy\Flac\flac.exe
Дополнительные параметры : -V -8 -T "Date=%year%" -T "Genre=%genre%" %source%

TOC извлечённого CD

Трек | Старт | Длительность | Начальный сектор | Конечный сектор
---------------------------------------------------------------------
1 | 0:00.00 | 5:25.51 | 0 | 24425
2 | 5:25.51 | 1:31.70 | 24426 | 31320
3 | 6:57.46 | 1:12.33 | 31321 | 36753
4 | 8:10.04 | 1:42.44 | 36754 | 44447
5 | 9:52.48 | 1:47.09 | 44448 | 52481
6 | 11:39.57 | 1:11.41 | 52482 | 57847
7 | 12:51.23 | 5:25.62 | 57848 | 82284
8 | 18:17.10 | 0:56.67 | 82285 | 86551
9 | 19:14.02 | 1:43.24 | 86552 | 94300
10 | 20:57.26 | 3:17.40 | 94301 | 109115
11 | 24:14.66 | 1:29.54 | 109116 | 115844
12 | 25:44.45 | 1:02.33 | 115845 | 120527
13 | 26:47.03 | 1:14.61 | 120528 | 126138
14 | 28:01.64 | 3:30.18 | 126139 | 141906
15 | 31:32.07 | 3:43.16 | 141907 | 158647
16 | 35:15.23 | 4:17.21 | 158648 | 177943
17 | 39:32.44 | 10:17.43 | 177944 | 224261

Характеристики диапазона извлечения и сообщения об ошибках

Выбранный диапазон

Имя файла F:\Достойно Есть\Хор Московского Подворья Свято-Троицкой Сергиевой Лавры - Достойно Есть. CD1.wav

Пиковый уровень 96.6 %
Скорость извлечения 5.2 X
Качество диапазона 100.0 %
CRC теста 68EDEE86
CRC копии 68EDEE86
Копирование... OK

Ошибок не произошло

Конец отчёта

==== Контрольная сумма отчёта 4F7FD333DEC4446571F17F0C780995A4093E5CD7620E4403EE2D5DF6F543B3F2 ====
CD2
Exact Audio Copy V1.0 beta 3 from 29. August 2011

Отчёт EAC об извлечении, выполненном 20. июня 2015, 6:49

Хор Московского Подворья Свято-Троицкой Сергиевой Лавры / Достойно Есть. CD2

Дисковод: _NEC DVD_RW ND-4571A Adapter: 2 ID: 0

Режим чтения : Достоверность
Использование точного потока : Да
Отключение кэша аудио : Да
Использование указателей C2 : Нет

Коррекция смещения при чтении : 48
Способность читать области Lead-in и Lead-out : Нет
Заполнение пропущенных сэмплов тишиной : Да
Удаление блоков с тишиной в начале и конце : Нет
При вычислениях CRC использовались нулевые сэмплы : Да
Интерфейс : Встроенный Win32-интерфейс для Win NT/2000

Выходной формат : Пользовательский кодировщик
Выбранный битрейт : 1024 kBit/s
Качество : Высокий
Добавление ID3-тега : Да
Утилита сжатия : C:\Program Files\Exact Audio Copy\Flac\flac.exe
Дополнительные параметры : -V -8 -T "Date=%year%" -T "Genre=%genre%" %source%

TOC извлечённого CD

Трек | Старт | Длительность | Начальный сектор | Конечный сектор
---------------------------------------------------------------------
1 | 0:00.00 | 3:08.68 | 0 | 14167
2 | 3:08.68 | 0:35.51 | 14168 | 16843
3 | 3:44.44 | 1:58.43 | 16844 | 25736
4 | 5:43.12 | 9:38.58 | 25737 | 69144
5 | 15:21.70 | 5:37.50 | 69145 | 94469
6 | 20:59.45 | 2:34.65 | 94470 | 106084
7 | 23:34.35 | 2:15.05 | 106085 | 116214
8 | 25:49.40 | 0:45.25 | 116215 | 119614
9 | 26:34.65 | 2:47.51 | 119615 | 132190
10 | 29:22.41 | 5:28.33 | 132191 | 156823
11 | 34:50.74 | 2:06.61 | 156824 | 166334
12 | 36:57.60 | 1:05.43 | 166335 | 171252
13 | 38:03.28 | 1:21.70 | 171253 | 177397
14 | 39:25.23 | 1:25.58 | 177398 | 183830
15 | 40:51.06 | 1:10.59 | 183831 | 189139
16 | 42:01.65 | 3:30.49 | 189140 | 204938

Характеристики диапазона извлечения и сообщения об ошибках

Выбранный диапазон

Имя файла F:\Достойно Есть\CD2\Хор Московского Подворья Свято-Троицкой Сергиевой Лавры - Достойно Есть. CD2.wav

Пиковый уровень 98.0 %
Скорость извлечения 5.1 X
Качество диапазона 100.0 %
CRC теста 3044360B
CRC копии 3044360B
Копирование... OK

Ошибок не произошло

Конец отчёта

==== Контрольная сумма отчёта 6D6ED45A2CD6A508E8B40E3B40279D15ADA1E88C8A0EC98A5F379CF79832B00E ====
[/pre]
Содержание индексной карты (.CUE)
CD1
REM GENRE Chorus
REM DATE 2002
REM DISCID FA0BAE11
REM COMMENT "ExactAudioCopy v1.0b3"
PERFORMER "Хор Московского Подворья Свято-Троицкой Сергиевой Лавры"
TITLE "Достойно Есть. CD1"
FILE "Хор Московского Подворья Свято-Троицкой Сергиевой Лавры - Достойно Есть. CD1.flac" WAVE
TRACK 01 AUDIO
TITLE "Мирная ектения"
PERFORMER "Хор Московского Подворья Свято-Троицкой Сергиевой Лавры"
INDEX 01 00:00:00
TRACK 02 AUDIO
TITLE "'Благослови, душе моя, Господа'"
PERFORMER "Хор Московского Подворья Свято-Троицкой Сергиевой Лавры"
INDEX 01 05:25:51
TRACK 03 AUDIO
TITLE "Малая ектения"
PERFORMER "Хор Московского Подворья Свято-Троицкой Сергиевой Лавры"
INDEX 01 06:57:46
TRACK 04 AUDIO
TITLE "'Слава... Хвали, душе моя, Господа'"
PERFORMER "Хор Московского Подворья Свято-Троицкой Сергиевой Лавры"
INDEX 01 08:10:04
TRACK 05 AUDIO
TITLE "'И ныне... Единородный Сыне'"
PERFORMER "Хор Московского Подворья Свято-Троицкой Сергиевой Лавры"
INDEX 01 09:52:48
TRACK 06 AUDIO
TITLE "Малая ектения"
PERFORMER "Хор Московского Подворья Свято-Троицкой Сергиевой Лавры"
INDEX 01 11:39:57
TRACK 07 AUDIO
TITLE "'Во Царствии Твоем'"
PERFORMER "Хор Московского Подворья Свято-Троицкой Сергиевой Лавры"
INDEX 01 12:51:23
TRACK 08 AUDIO
TITLE "'Приидите, поклонимся'"
PERFORMER "Хор Московского Подворья Свято-Троицкой Сергиевой Лавры"
INDEX 01 18:17:10
TRACK 09 AUDIO
TITLE "Тропари по входе"
PERFORMER "Хор Московского Подворья Свято-Троицкой Сергиевой Лавры"
INDEX 01 19:14:02
TRACK 10 AUDIO
TITLE "'Господи, спаси благочестивыя...' Трисвятое"
PERFORMER "Хор Московского Подворья Свято-Троицкой Сергиевой Лавры"
INDEX 01 20:57:26
TRACK 11 AUDIO
TITLE "Прокимен"
PERFORMER "Хор Московского Подворья Свято-Троицкой Сергиевой Лавры"
INDEX 01 24:14:66
TRACK 12 AUDIO
TITLE "Чтение Апостола"
PERFORMER "Хор Московского Подворья Свято-Троицкой Сергиевой Лавры"
INDEX 01 25:44:45
TRACK 13 AUDIO
TITLE "Аллилуарий. Опевы Евангелия"
PERFORMER "Хор Московского Подворья Свято-Троицкой Сергиевой Лавры"
INDEX 01 26:47:03
TRACK 14 AUDIO
TITLE "Чтение Евангелия"
PERFORMER "Хор Московского Подворья Свято-Троицкой Сергиевой Лавры"
INDEX 01 28:01:64
TRACK 15 AUDIO
TITLE "Сугубая ектения"
PERFORMER "Хор Московского Подворья Свято-Троицкой Сергиевой Лавры"
INDEX 01 31:32:07
TRACK 16 AUDIO
TITLE "Ектения об оглашенных"
PERFORMER "Хор Московского Подворья Свято-Троицкой Сергиевой Лавры"
INDEX 01 35:15:23
TRACK 17 AUDIO
TITLE "Херувимская песнь"
PERFORMER "Хор Московского Подворья Свято-Троицкой Сергиевой Лавры"
INDEX 01 39:32:44
CD2
REM GENRE Chorus
REM DATE 2002
REM DISCID D10AAC10
REM COMMENT "ExactAudioCopy v1.0b3"
PERFORMER "Хор Московского Подворья Свято-Троицкой Сергиевой Лавры"
TITLE "Достойно Есть. CD2"
FILE "Хор Московского Подворья Свято-Троицкой Сергиевой Лавры - Достойно Есть. CD2.flac" WAVE
TRACK 01 AUDIO
TITLE "Просительная ектения"
PERFORMER "Хор Московского Подворья Свято-Троицкой Сергиевой Лавры"
INDEX 01 00:00:00
TRACK 02 AUDIO
TITLE "'Отца и Сына...'"
PERFORMER "Хор Московского Подворья Свято-Троицкой Сергиевой Лавры"
INDEX 01 03:08:68
TRACK 03 AUDIO
TITLE "'Верую'"
PERFORMER "Хор Московского Подворья Свято-Троицкой Сергиевой Лавры"
INDEX 01 03:44:44
TRACK 04 AUDIO
TITLE "'Милость мира'"
PERFORMER "Хор Московского Подворья Свято-Троицкой Сергиевой Лавры"
INDEX 01 05:43:12
TRACK 05 AUDIO
TITLE "'Достойно Есть'"
PERFORMER "Хор Московского Подворья Свято-Троицкой Сергиевой Лавры"
INDEX 01 15:21:70
TRACK 06 AUDIO
TITLE "Просительная ектения"
PERFORMER "Хор Московского Подворья Свято-Троицкой Сергиевой Лавры"
INDEX 01 20:59:45
TRACK 07 AUDIO
TITLE "'Отче наш...'"
PERFORMER "Хор Московского Подворья Свято-Троицкой Сергиевой Лавры"
INDEX 01 23:34:35
TRACK 08 AUDIO
TITLE "'Един Свят...'"
PERFORMER "Хор Московского Подворья Свято-Троицкой Сергиевой Лавры"
INDEX 01 25:49:40
TRACK 09 AUDIO
TITLE "Запричастный стих"
PERFORMER "Хор Московского Подворья Свято-Троицкой Сергиевой Лавры"
INDEX 01 26:34:65
TRACK 10 AUDIO
TITLE "'Марие Дево'"
PERFORMER "Хор Московского Подворья Свято-Троицкой Сергиевой Лавры"
INDEX 01 29:22:41
TRACK 11 AUDIO
TITLE "'Со страхом Божиим...'"
PERFORMER "Хор Московского Подворья Свято-Троицкой Сергиевой Лавры"
INDEX 01 34:50:74
TRACK 12 AUDIO
TITLE "'Видехом Свет истинный'"
PERFORMER "Хор Московского Подворья Свято-Троицкой Сергиевой Лавры"
INDEX 01 36:57:60
TRACK 13 AUDIO
TITLE "'Да исполнятся уста наша'"
PERFORMER "Хор Московского Подворья Свято-Троицкой Сергиевой Лавры"
INDEX 01 38:03:28
TRACK 14 AUDIO
TITLE "Малая ектения"
PERFORMER "Хор Московского Подворья Свято-Троицкой Сергиевой Лавры"
INDEX 01 39:25:23
TRACK 15 AUDIO
TITLE "Заамвонная молитва"
PERFORMER "Хор Московского Подворья Свято-Троицкой Сергиевой Лавры"
INDEX 01 40:51:06
TRACK 16 AUDIO
TITLE "Отпуст"
PERFORMER "Хор Московского Подворья Свято-Троицкой Сергиевой Лавры"
INDEX 01 42:01:65
Download

Войдите для скачивания торрент-файла

Как скачивать  ·   Правила трекера



Последний раз редактировалось: Р.Б.А (2015-07-19 00:40), всего редактировалось 1 раз
[Профиль]  [ЛС] 

Liras

Стаж: 8 лет 1 месяц

Сообщений: 12

post 26-Июн-2015 14:05 (спустя 2 дня)

[Цитировать] 

Благодарю!
[Профиль]  [ЛС] 

CEPBEP4

Стаж: 6 лет 2 месяца

Сообщений: 133

Откуда: ОРЕНБУРГ

Russia

post 17-Июл-2015 12:17 (спустя 20 дней)

[Цитировать] 

Качаю, спасибо!

_________________
pic
pic 100 Мбит/с pic 100 Мбит/с pic
[Профиль]  [ЛС] 

Р.Б.А

Стаж: 7 лет

Сообщений: 2680

Russia

post 19-Июл-2015 00:42 (спустя 1 день 12 часов)

[Цитировать] 

Liras
CEPBEP4

Во славу Господню!

С Обретением честных мощей преподобного и богоносного отца нашего Сергия Радонежского, игумена Земли Русской!

_________________
picpic
[Профиль]  [ЛС] 

Alex Sag

Стаж: 8 лет

Сообщений: 278

Kazakhstan

post 30-Сен-2015 13:24 (спустя 2 месяца 11 дней)

[Цитировать] 

Спаси Вас Господи!

_________________
Alexey
[Профиль]  [ЛС] 

ksprayer

Стаж: 2 года 9 месяцев

Сообщений: 141

Belarus

post 21-Сен-2016 09:54 (спустя 11 месяцев)

[Цитировать] 

Спаси Господи!
[Профиль]  [ЛС] 
Показать сообщения:    
Ответить на тему

Текущее время: 27-Май 12:00

Часовой пояс: GMT + 4



Вы не можете начинать темы
Вы не можете отвечать на сообщения
Вы не можете редактировать свои сообщения
Вы не можете удалять свои сообщения
Вы не можете голосовать в опросах
Вы не можете прикреплять файлы к сообщениям
Вы не можете скачивать файлы